generated from DragonRatTiger/Custom-Charts
636 lines
5.4 KiB
Plaintext
636 lines
5.4 KiB
Plaintext
TITLE:BABEL
|
|
SUBTITLE:--iyowa feat. Teto Kasane
|
|
TITLEJA:バベル
|
|
SUBTITLEJA:いよわ feat. 重音テト
|
|
PREIMAGE:Babel.jpg
|
|
BGMOVIE:Babel.mp4
|
|
WAVE:Babel.ogg
|
|
BPM:224.981
|
|
OFFSET:-0.341
|
|
DEMOSTART:8.875
|
|
MAKER:Colin
|
|
|
|
COURSE:Easy
|
|
LEVEL:4
|
|
SCOREINIT:
|
|
SCOREDIFF:
|
|
NOTESDESIGNER0:Colin
|
|
|
|
#START
|
|
1010,
|
|
1,
|
|
1010,
|
|
1,
|
|
1010,
|
|
1,
|
|
1010,
|
|
1,
|
|
#GOGOSTART
|
|
2022,
|
|
2020,
|
|
2022,
|
|
2020,
|
|
2022,
|
|
2020,
|
|
2022,
|
|
2220,
|
|
1010,
|
|
1110,
|
|
1010,
|
|
1110,
|
|
1010,
|
|
1110,
|
|
1010,
|
|
11
|
|
#GOGOEND
|
|
10,
|
|
1020,
|
|
1,
|
|
1020,
|
|
1,
|
|
1020,
|
|
1,
|
|
1020,
|
|
1,
|
|
1020,
|
|
1,
|
|
1020,
|
|
1,
|
|
1020,
|
|
1,
|
|
1010,
|
|
1,
|
|
5,
|
|
,
|
|
,
|
|
,
|
|
8,
|
|
2,
|
|
5,
|
|
8,
|
|
2020,
|
|
2,
|
|
1010,
|
|
1,
|
|
2,
|
|
2,
|
|
2020,
|
|
2,
|
|
#GOGOSTART
|
|
1010,
|
|
1110,
|
|
1010,
|
|
1110,
|
|
1010,
|
|
1110,
|
|
2020,
|
|
2220,
|
|
2020,
|
|
2220,
|
|
2020,
|
|
2220,
|
|
2020,
|
|
2022,
|
|
2022,
|
|
20
|
|
#GOGOEND
|
|
20,
|
|
#GOGOSTART
|
|
1,
|
|
,
|
|
1,
|
|
1010,
|
|
1,
|
|
1,
|
|
1,
|
|
1010,
|
|
1,
|
|
1,
|
|
1,
|
|
1010,
|
|
1,
|
|
1,
|
|
1,
|
|
20
|
|
#GOGOEND
|
|
20,
|
|
5,
|
|
,
|
|
,
|
|
,
|
|
8,
|
|
2,
|
|
5,
|
|
8,
|
|
5,
|
|
,
|
|
,
|
|
,
|
|
8,
|
|
,
|
|
,
|
|
1110,
|
|
#GOGOSTART
|
|
1010,
|
|
1110,
|
|
1010,
|
|
1110,
|
|
1010,
|
|
1110,
|
|
2020,
|
|
2220,
|
|
2020,
|
|
2220,
|
|
2020,
|
|
2220,
|
|
2020,
|
|
2022,
|
|
2022,
|
|
2020,
|
|
1,
|
|
1,
|
|
1010,
|
|
1,
|
|
1010,
|
|
1,
|
|
1010,
|
|
1,
|
|
#GOGOEND
|
|
2,
|
|
2,
|
|
2,
|
|
2,
|
|
2,
|
|
2,
|
|
2,
|
|
2020,
|
|
#END
|
|
|
|
COURSE:Normal
|
|
LEVEL:4
|
|
SCOREINIT:
|
|
SCOREDIFF:
|
|
NOTESDESIGNER1:Colin
|
|
|
|
#START
|
|
1010,
|
|
1,
|
|
1010,
|
|
1,
|
|
1010,
|
|
1,
|
|
1010,
|
|
1,
|
|
#GOGOSTART
|
|
2022,
|
|
2220,
|
|
2022,
|
|
2222,
|
|
2022,
|
|
2220,
|
|
2022,
|
|
2220,
|
|
1011,
|
|
1110,
|
|
1011,
|
|
1110,
|
|
1010,
|
|
1111,
|
|
1010,
|
|
11
|
|
#GOGOEND
|
|
10,
|
|
1120,
|
|
1011,
|
|
1020,
|
|
1110,
|
|
1120,
|
|
1110,
|
|
1120,
|
|
1010,
|
|
1120,
|
|
1010,
|
|
1120,
|
|
1010,
|
|
1120,
|
|
1011,
|
|
1010,
|
|
1010,
|
|
5,
|
|
,
|
|
,
|
|
,
|
|
8020,
|
|
2222,
|
|
5,
|
|
8,
|
|
2020,
|
|
2022,
|
|
1010,
|
|
1011,
|
|
2020,
|
|
2022,
|
|
2020,
|
|
2020,
|
|
#GOGOSTART
|
|
1010,
|
|
1110,
|
|
1110,
|
|
1111,
|
|
1010,
|
|
1111,
|
|
2020,
|
|
2222,
|
|
2020,
|
|
2222,
|
|
2020,
|
|
2222,
|
|
2022,
|
|
2022,
|
|
2222,
|
|
22
|
|
#GOGOEND
|
|
20,
|
|
#GOGOSTART
|
|
1,
|
|
1011,
|
|
1011,
|
|
1212,
|
|
1020,
|
|
1022,
|
|
1020,
|
|
1212,
|
|
1020,
|
|
1020,
|
|
1022,
|
|
1012,
|
|
1020,
|
|
1022,
|
|
1020,
|
|
22
|
|
#GOGOEND
|
|
22,
|
|
5,
|
|
,
|
|
,
|
|
,
|
|
8,
|
|
2222,
|
|
5,
|
|
8022,
|
|
5,
|
|
,
|
|
,
|
|
,
|
|
8010,
|
|
1010,
|
|
1011,
|
|
1110,
|
|
#GOGOSTART
|
|
1210,
|
|
1112,
|
|
1011,
|
|
1110,
|
|
1210,
|
|
1112,
|
|
2020,
|
|
2222,
|
|
2022,
|
|
2220,
|
|
2220,
|
|
2220,
|
|
2220,
|
|
2222,
|
|
2022,
|
|
2220,
|
|
1010,
|
|
1011,
|
|
1010,
|
|
1011,
|
|
1010,
|
|
1011,
|
|
1010,
|
|
1011,
|
|
#GOGOEND
|
|
2,
|
|
2,
|
|
2,
|
|
2,
|
|
2,
|
|
2,
|
|
2,
|
|
2020,
|
|
#END
|
|
|
|
COURSE:Hard
|
|
LEVEL:8
|
|
SCOREINIT:
|
|
SCOREDIFF:
|
|
NOTESDESIGNER2:Colin
|
|
|
|
#START
|
|
22202210,
|
|
12101210,
|
|
22202211,
|
|
22102210,
|
|
22202211,
|
|
12101210,
|
|
22202210,
|
|
200200100010000020000000,
|
|
#GOGOSTART
|
|
10201120,
|
|
11101110,
|
|
1212,
|
|
11101110,
|
|
22201212,
|
|
10202220,
|
|
1212,
|
|
1110,
|
|
22201110,
|
|
11101110,
|
|
22201020,
|
|
22202220,
|
|
0112,
|
|
20201110,
|
|
2222,
|
|
22
|
|
#GOGOEND
|
|
10,
|
|
10201011,
|
|
01011000,
|
|
20202022,
|
|
02022000,
|
|
10101011,
|
|
01011002,
|
|
02022022,
|
|
02022000,
|
|
10101011,
|
|
01011000,
|
|
20202022,
|
|
02022000,
|
|
10101011,
|
|
01011002,
|
|
02022022,
|
|
02022000,
|
|
10100002,
|
|
,
|
|
10100002,
|
|
,
|
|
10122122,
|
|
20201015,
|
|
,
|
|
80002022,
|
|
5,
|
|
,
|
|
,
|
|
,
|
|
80200002,
|
|
,
|
|
1102,
|
|
1110,
|
|
#GOGOSTART
|
|
10201120,
|
|
11101110,
|
|
1212,
|
|
11101110,
|
|
22201212,
|
|
10202220,
|
|
1212,
|
|
1110,
|
|
22201110,
|
|
11101110,
|
|
22201020,
|
|
22202220,
|
|
0112,
|
|
20201110,
|
|
2222,
|
|
22
|
|
#GOGOEND
|
|
10,
|
|
#GOGOSTART
|
|
10112200,
|
|
0222,
|
|
10001122,
|
|
100000202020,
|
|
10020010,
|
|
0000000020002022,
|
|
20202202,
|
|
100100202050,
|
|
80101120,
|
|
10102012,
|
|
000000000100200000002000,
|
|
200200100202,
|
|
020000000201,
|
|
00000022,
|
|
10220022,
|
|
22
|
|
#GOGOEND
|
|
20,
|
|
10100002,
|
|
,
|
|
10100002,
|
|
,
|
|
10122122,
|
|
20201015,
|
|
,
|
|
80020022,
|
|
5,
|
|
,
|
|
,
|
|
,
|
|
80200002,
|
|
,
|
|
1102,
|
|
1110,
|
|
#GOGOSTART
|
|
10201120,
|
|
11101110,
|
|
1212,
|
|
11101110,
|
|
22201212,
|
|
10202220,
|
|
1212,
|
|
1110,
|
|
22201110,
|
|
11101110,
|
|
22201020,
|
|
22202220,
|
|
0112,
|
|
20201110,
|
|
2222,
|
|
2210,
|
|
22202210,
|
|
12101210,
|
|
22202211,
|
|
22102210,
|
|
22202211,
|
|
12101210,
|
|
22202210,
|
|
22102000,
|
|
#GOGOEND
|
|
1,
|
|
1110,
|
|
1,
|
|
1110,
|
|
1,
|
|
1110,
|
|
2020,
|
|
2220,
|
|
#END
|
|
|
|
COURSE:Oni
|
|
LEVEL:10
|
|
SCOREINIT:
|
|
SCOREDIFF:
|
|
NOTESDESIGNER3:Colin
|
|
|
|
#START
|
|
1011202012102010,
|
|
1011202011102010,
|
|
1011201012102020,
|
|
1011201012012022,
|
|
1011201012102020,
|
|
1011201022102010,
|
|
1011202012102020,
|
|
100000200000200000001000100100200200200200200200,
|
|
#GOGOSTART
|
|
1020201110102010,
|
|
1022102210202220,
|
|
1010201110102010,
|
|
1011101110101211,
|
|
1020102011102020,
|
|
1020202210102011,
|
|
1010201110102010,
|
|
2010201110102022,
|
|
1010201110102020,
|
|
1110201011102022,
|
|
1010201010112010,
|
|
1110201011102020,
|
|
1010201110102010,
|
|
2011201010112020,
|
|
1020201110102010,
|
|
20222022
|
|
#GOGOEND
|
|
10000000,
|
|
1010202210102020,
|
|
1022102210102020,
|
|
1011202010112010,
|
|
1011201110111210,
|
|
1010201110102022,
|
|
1010202210102011,
|
|
1010201110102011,
|
|
1010202211112020,
|
|
1020202211112022,
|
|
1010201110102022,
|
|
1010201110102210,
|
|
1010201110102022,
|
|
1010201110102011,
|
|
1010201110102220,
|
|
1010201110102010,
|
|
30403012,
|
|
6,
|
|
,
|
|
,
|
|
,
|
|
80222121,
|
|
20201011,
|
|
10101212,
|
|
22121222,
|
|
2022202020202020,
|
|
2022201022202020,
|
|
12221222,
|
|
1020202211112020,
|
|
1010202022202020,
|
|
2010201022202020,
|
|
1010201122202020,
|
|
1000201022222000,
|
|
#GOGOSTART
|
|
1020201110102010,
|
|
1022102210202220,
|
|
1010201110102010,
|
|
1011101110101211,
|
|
1020102011102020,
|
|
1020202210102011,
|
|
1010201110102010,
|
|
2010201110102022,
|
|
1010201110102020,
|
|
1110201011102022,
|
|
1010201010112010,
|
|
1110201011102020,
|
|
1010201110102010,
|
|
2011201010112020,
|
|
1020201110102010,
|
|
20222022
|
|
#GOGOEND
|
|
10002000,
|
|
#GOGOSTART
|
|
1022102210102011,
|
|
2222122210221022,
|
|
1022102210102020,
|
|
2221022110222022,
|
|
1022102210221022,
|
|
1022102210221022,
|
|
1010201122102200,
|
|
2200220022122222,
|
|
1202220212101222,
|
|
1022101210112022,
|
|
2012101022022222,
|
|
1022102210121202,
|
|
1012101210121022,
|
|
1022102210121020,
|
|
1210122012101220,
|
|
12112211
|
|
#GOGOEND
|
|
10001020,
|
|
6,
|
|
,
|
|
,
|
|
,
|
|
80222121,
|
|
20201011,
|
|
10101212,
|
|
22121222,
|
|
2022202020202020,
|
|
2022201022202020,
|
|
12221222,
|
|
1020202211112020,
|
|
1010202022202020,
|
|
2010201022202020,
|
|
1010201122202020,
|
|
1000201022222000,
|
|
#GOGOSTART
|
|
1020201110102010,
|
|
1022102210202220,
|
|
1010201110102010,
|
|
1011101110101211,
|
|
1020102011102020,
|
|
1020202210102011,
|
|
1010201110102010,
|
|
2010201110102022,
|
|
1010201110102020,
|
|
1110201011102022,
|
|
1010201010112010,
|
|
1110201011102020,
|
|
1010201110102010,
|
|
2011201010112020,
|
|
1020201110102010,
|
|
2022202211222000,
|
|
1011202012102010,
|
|
1011202011102010,
|
|
1011201012102020,
|
|
1011201012012022,
|
|
1011201012102020,
|
|
1011201022102010,
|
|
1011202012102020,
|
|
1020201110201000,
|
|
#GOGOEND
|
|
22202212,
|
|
12101210,
|
|
22202211,
|
|
22102210,
|
|
22202211,
|
|
12101210,
|
|
22202211,
|
|
22221000,
|
|
#END
|