Files
2025-12-20 15:52:49 -05:00

995 lines
8.0 KiB
Plaintext

TITLE:D/N/A
SUBTITLE:--Azari feat. Teto Kasane & flower / Project SEKAI COLORFUL STAGE!
TITLEJA:D/N/A
SUBTITLEJA:Azari feat. 重音テト、flower 「プロジェクトセカイ カラフルステージ!」より
PREIMAGE:DNA.jpg
BGMOVIE:DNA.mp4
WAVE:DNA.ogg
BPM:150
OFFSET:-0.619
DEMOSTART:54.619
GENRE:ボーカロイド
MAKER:Colin
COURSE:Easy
LEVEL:2
SCOREINIT:
SCOREDIFF:
NOTESDESIGNER0:Colin
#START
,
1010,
1,
1010,
1,
#GOGOSTART
60
#GOGOEND
00
#GOGOSTART
00
#GOGOEND
00
#GOGOSTART
00
#GOGOEND
0
#GOGOSTART
00
#GOGOEND
0
#GOGOSTART
0
#GOGOEND
0,
#GOGOSTART
0000
#GOGOEND
0000
#GOGOSTART
0000
#GOGOEND
0000
#GOGOSTART
000
#GOGOEND
000
#GOGOSTART
0000
#GOGOEND
00
#GOGOSTART
00
#GOGOEND
00,
#GOGOSTART
80
#GOGOEND
00
#GOGOSTART
00
#GOGOEND
00
#GOGOSTART
00
#GOGOEND
0
#GOGOSTART
00
#GOGOEND
0
#GOGOSTART
0
#GOGOEND
0,
#GOGOSTART
0
#GOGOEND
0
#GOGOSTART
0
#GOGOEND
0
#GOGOSTART
0
#GOGOEND
0
#GOGOSTART
0
#GOGOEND
0,
2,
2,
2,
2020,
2220,
2220,
2020,
2,
1010,
1110,
1010,
1110,
1010,
1110,
1110,
1110,
4,
,
2,
2020,
5008,
3,
1010,
1,
1,
#GOGOSTART
3010,
1110,
1010,
1,
3,
,
4,
,
#GOGOEND
3010,
1010,
2020,
2,
3,
,
3030,
3,
#GOGOSTART
30
#GOGOEND
00
#GOGOSTART
00
#GOGOEND
00
#GOGOSTART
00
#GOGOEND
0
#GOGOSTART
00
#GOGOEND
0
#GOGOSTART
0
#GOGOEND
0,
#GOGOSTART
3000
#GOGOEND
0000
#GOGOSTART
0000
#GOGOEND
0000
#GOGOSTART
000
#GOGOEND
000
#GOGOSTART
0000
#GOGOEND
00
#GOGOSTART
00
#GOGOEND
00,
#GOGOSTART
30
#GOGOEND
00
#GOGOSTART
00
#GOGOEND
00
#GOGOSTART
00
#GOGOEND
0
#GOGOSTART
00
#GOGOEND
0
#GOGOSTART
0
#GOGOEND
0,
#GOGOSTART
30
#GOGOEND
0
#GOGOSTART
0
#GOGOEND
000
#GOGOSTART
00000
#GOGOEND
0000,
#GOGOSTART
3010,
1110,
1010,
1110,
2020,
2,
2022,
2000200
#GOGOEND
0,
#GOGOSTART
1,
1010,
1,
1,
2,
2,
2020,
2,
1010,
1,
2020,
2,
1010,
1,
2020,
200000000000000
#GOGOEND
0,
#END
COURSE:Normal
LEVEL:4
SCOREINIT:
SCOREDIFF:
NOTESDESIGNER1:Colin
#START
,
1010,
1110,
1010,
1010,
#GOGOSTART
60
#GOGOEND
00
#GOGOSTART
00
#GOGOEND
00
#GOGOSTART
00
#GOGOEND
0
#GOGOSTART
00
#GOGOEND
0
#GOGOSTART
0
#GOGOEND
0,
#GOGOSTART
0000
#GOGOEND
0000
#GOGOSTART
0000
#GOGOEND
0000
#GOGOSTART
000
#GOGOEND
000
#GOGOSTART
0000
#GOGOEND
00
#GOGOSTART
00
#GOGOEND
00,
#GOGOSTART
80
#GOGOEND
00
#GOGOSTART
00
#GOGOEND
00
#GOGOSTART
00
#GOGOEND
0
#GOGOSTART
00
#GOGOEND
0
#GOGOSTART
0
#GOGOEND
0,
#GOGOSTART
0
#GOGOEND
0
#GOGOSTART
0
#GOGOEND
0
#GOGOSTART
0
#GOGOEND
0
#GOGOSTART
0
#GOGOEND
0,
2020,
2220,
2020,
2020,
20222000,
20222000,
2020,
2,
10101001,
1110,
10101001,
1110,
10111000,
10111000,
1110,
1110,
4,
,
2,
2020,
5008,
30001001,
1110,
10001001,
1110,
#GOGOSTART
3110,
10111010,
1010,
1110,
3020,
2020,
4010,
1010,
#GOGOEND
3010,
11101000,
2020,
22202000,
3,
,
3030,
3110,
#GOGOSTART
30
#GOGOEND
00
#GOGOSTART
00
#GOGOEND
00
#GOGOSTART
30
#GOGOEND
0
#GOGOSTART
00
#GOGOEND
0
#GOGOSTART
0
#GOGOEND
0,
#GOGOSTART
3000
#GOGOEND
0000
#GOGOSTART
3000
#GOGOEND
0000
#GOGOSTART
300
#GOGOEND
000
#GOGOSTART
0000
#GOGOEND
00
#GOGOSTART
00
#GOGOEND
00,
#GOGOSTART
30
#GOGOEND
00
#GOGOSTART
00
#GOGOEND
00
#GOGOSTART
30
#GOGOEND
0
#GOGOSTART
00
#GOGOEND
0
#GOGOSTART
0
#GOGOEND
0,
#GOGOSTART
30
#GOGOEND
0
#GOGOSTART
0
#GOGOEND
300
#GOGOSTART
03000
#GOGOEND
0000,
#GOGOSTART
30001011,
1110,
10001011,
1110,
2220,
20222000,
2222,
2022200
#GOGOEND
0,
#GOGOSTART
1010,
1010,
1010,
1,
2020,
2020,
2020,
2,
1110,
10111000,
2220,
20222000,
1110,
10111000,
2220,
200020202000200
#GOGOEND
0,
#END
COURSE:Hard
LEVEL:5
SCOREINIT:
SCOREDIFF:
NOTESDESIGNER2:Colin
#START
,
21112000,
12222000,
21112000,
12220000,
#GOGOSTART
60
#GOGOEND
00
#GOGOSTART
00
#GOGOEND
00
#GOGOSTART
00
#GOGOEND
0
#GOGOSTART
00
#GOGOEND
0
#GOGOSTART
0
#GOGOEND
0,
#GOGOSTART
0000
#GOGOEND
0000
#GOGOSTART
0000
#GOGOEND
0000
#GOGOSTART
000
#GOGOEND
000
#GOGOSTART
0000
#GOGOEND
00
#GOGOSTART
00
#GOGOEND
00,
#GOGOSTART
80
#GOGOEND
00
#GOGOSTART
10
#GOGOEND
00
#GOGOSTART
10
#GOGOEND
0
#GOGOSTART
10
#GOGOEND
0
#GOGOSTART
1
#GOGOEND
0,
#GOGOSTART
3
#GOGOEND
0
#GOGOSTART
3
#GOGOEND
0
#GOGOSTART
3
#GOGOEND
0
#GOGOSTART
3
#GOGOEND
0,
3002001000000000,
1002001000002000,
1002001000002000,
1011101020002000,
11112022,
11112011,
1112,
1210,
1010102020220020,
12121010,
1020102010220020,
20202222,
11111011,
11122012,
10201120,
1210,
2,
2,
2,
20022002,
5008,
1000100010010010,
1001001010001010,
1000100010010010,
11111010,
#GOGOSTART
3000400030020020,
1002001020001020,
1000200010020010,
21212022,
1000200010020020,
1002002010001020,
1000200010220020,
1002002010201000,
#GOGOEND
1002001010020010,
21212011,
2001001020010020,
22221011,
30000022,
4,
3333,
3340,
#GOGOSTART
30
#GOGOEND
00
#GOGOSTART
30
#GOGOEND
00
#GOGOSTART
30
#GOGOEND
0
#GOGOSTART
30
#GOGOEND
0
#GOGOSTART
3
#GOGOEND
0,
#GOGOSTART
3000
#GOGOEND
0000
#GOGOSTART
3000
#GOGOEND
0000
#GOGOSTART
300
#GOGOEND
000
#GOGOSTART
3000
#GOGOEND
00
#GOGOSTART
30
#GOGOEND
00,
#GOGOSTART
30
#GOGOEND
00
#GOGOSTART
30
#GOGOEND
00
#GOGOSTART
30
#GOGOEND
0
#GOGOSTART
30
#GOGOEND
0
#GOGOSTART
3
#GOGOEND
0,
#GOGOSTART
30
#GOGOEND
0
#GOGOSTART
0
#GOGOEND
300
#GOGOSTART
03022
#GOGOEND
2020,
#GOGOSTART
3000400030020020,
1002001020001020,
1000200010020010,
21212022,
1000200010020020,
1002002010001020,
1000200010220020,
10020020102010
#GOGOEND
10,
#GOGOSTART
10201122,
1000200110102000,
10201122,
10201120,
10201122,
1000200110102000,
10201122,
1000200010101111,
10201122,
12101212,
10201122,
10201122,
1000200011102010,
1020200020222220,
10201122,
100020001020222
#GOGOEND
2,
#END
COURSE:Oni
LEVEL:9
SCOREINIT:
SCOREDIFF:
NOTESDESIGNER3:Colin
#START
1000100010220010,
3020101020020020,
1020102020110020,
1020101020020020,
12121040,
#GOGOSTART
60
#GOGOEND
00
#GOGOSTART
00
#GOGOEND
00
#GOGOSTART
00
#GOGOEND
0
#GOGOSTART
00
#GOGOEND
0
#GOGOSTART
0
#GOGOEND
0,
#GOGOSTART
0000
#GOGOEND
0000
#GOGOSTART
0000
#GOGOEND
0000
#GOGOSTART
000
#GOGOEND
000
#GOGOSTART
0000
#GOGOEND
00
#GOGOSTART
00
#GOGOEND
00,
#GOGOSTART
80
#GOGOEND
00
#GOGOSTART
30
#GOGOEND
00
#GOGOSTART
30
#GOGOEND
0
#GOGOSTART
30
#GOGOEND
0
#GOGOSTART
3
#GOGOEND
0,
#GOGOSTART
3
#GOGOEND
0
#GOGOSTART
3
#GOGOEND
0
#GOGOSTART
3
#GOGOEND
0
#GOGOSTART
3
#GOGOEND
0,
3020201020210010,
22222012,
2020101010120010,
1012101120201020,
11221022,
1012201010001020,
10221010,
12121222,
1020102010210210,
1020112010210120,
1020102210210120,
1020112010201022,
1011201020120120,
1011201020120120,
1011201210210120,
1020112210101010,
3,
1,
1,
11111111,
3003003000000000,
1222122212212212,
1222122212212212,
1222122212212212,
1222122210000000,
#GOGOSTART
3010201120120120,
1012012010212010,
1011201210212020,
1011201020101122,
1010201120120120,
1012012020112020,
1010201120120120,
1012012020112020,
#GOGOEND
1021011020210110,
1021201020001010,
2021012010210120,
1020112010102020,
3,
40000012,
1210101012111212,
12121022,
#GOGOSTART
#SCROLL 1.1
30
#GOGOEND
00
#GOGOSTART
#SCROLL 1.17826
30
#GOGOEND
00
#GOGOSTART
#SCROLL 1.25652
30
#GOGOEND
0
#GOGOSTART
#SCROLL 1.31522
30
#GOGOEND
0
#GOGOSTART
#SCROLL 1.37391
3
#GOGOEND
0,
#GOGOSTART
#SCROLL 1.41304
3000
#GOGOEND
0000
#GOGOSTART
#SCROLL 1.4913
30
#SCROLL 1.51087
40
#GOGOEND
#SCROLL 1.53043
40
#SCROLL 1.55
40
#GOGOSTART
#SCROLL 1.56957
300
#GOGOEND
000
#GOGOSTART
#SCROLL 1.62826
3000
#GOGOEND
00
#GOGOSTART
#SCROLL 1.68696
30
#GOGOEND
00,
#GOGOSTART
#SCROLL 1.72609
3000
#GOGOEND
0000
#GOGOSTART
#SCROLL 1.80435
3000
#GOGOEND
0000
#GOGOSTART
#SCROLL 1.88261
3000
#GOGOEND
00
#GOGOSTART
#SCROLL 1.9413
3000
#GOGOEND
00
#GOGOSTART
#SCROLL 2
3
#SCROLL 1.97222
3
#GOGOEND
#SCROLL 1.94444
3
#SCROLL 1.91667
3,
#GOGOSTART
#SCROLL 1.88889
4000
#GOGOEND
00
#GOGOSTART
#SCROLL 1.72222
3
#SCROLL 1.69444
3
#GOGOEND
#SCROLL 1.66667
400000
#GOGOSTART
#SCROLL 1.5
3
#SCROLL 1.47222
3
#SCROLL 1.44444
40
#SCROLL 1.38889
40
#SCROLL 1.33333
40
#SCROLL 1.27778
40
#GOGOEND
#SCROLL 1.22222
30000000,
#GOGOSTART
#SCROLL 1
3010201120120120,
1012012010212010,
1011201210212020,
1011201020101122,
1010201120120120,
1012012020112020,
1010201120120120,
10201020111122
#GOGOEND
22,
#GOGOSTART
1010201210210120,
1020112010210120,
1020112011210120,
1020122010210210,
1010201210210120,
1020112010210120,
1020112011210120,
1020102010120120,
300000100100200200200200100100100100200000202020,
1111201210210210,
11101010200020201020201020001020,
1010201210212010,
11101010200010201010101020001020,
1111201211212022,
1111201212212010,
101010101010222
#GOGOEND
2,
#END