Files
2025-06-11 19:53:16 -04:00

1160 lines
13 KiB
Plaintext

TITLE:9876734123
SUBTITLE:--Silentroom
TITLEJA:9876734123
SUBTITLEJA:Silentroom
PREIMAGE:NineEightSevenSixSevenThreeFourOneTwoThree.png
BGMOVIE:NineEightSevenSixSevenThreeFourOneTwoThree.mp4
WAVE:NineEightSevenSixSevenThreeFourOneTwoThree.ogg
BPM:157
OFFSET:-0.836
DEMOSTART:87.2058
GENRE:バラエティ
MAKER:Colin & Yokoyoko
COURSE:Edit
LEVEL:10
BALLOON:
SCOREINIT:
SCOREDIFF:
NOTESDESIGNER4:Yokoyoko & Colin
#START
#MEASURE 2/4
#SCROLL 1.25
20020020020020020020020020020000,
#MEASURE 4/4
#SCROLL 1.5
30
#SCROLL 1
22221022221222,
#SCROLL 1.25
30
#SCROLL 1
22221022221022,
101010200100200200200200100000100200200200100000,
100200200200200000100200200200101010200100200200,
1222112212112212,
1122122212112122,
100000100000100000100100100010001000100010001000,
#MEASURE 1/4
1,
#MEASURE 1/32
#SCROLL 1.25
5,
#SCROLL 0.4
,
#SCROLL 0.6
,
#SCROLL 0.8
,
#SCROLL 1
,
#SCROLL 1.2
,
#SCROLL 1.4
,
#SCROLL 1.6
,
#SCROLL 1.8
,
#SCROLL 2
,
#SCROLL 2.2
8,
#SCROLL 2.4
,
#SCROLL 2.6
,
#SCROLL 2.8
,
#SCROLL 3
,
#SCROLL 3.2
,
#MEASURE 1/4
#BARLINEOFF
#SCROLL 1
222222,
#MEASURE 4/4
#BARLINEON
1222122212010120,
1222122210210122,
1222122210210120,
101010200200100200100100200200100200100100200000,
1222122212010122,
100200200200100200200200102020100100200100200200,
101010101010101010200100200000000000101010101010,
101010200100200200100200000200100100202020100000,
1221212122112121,
2112121120212220,
11111000400010102010201000201000,
200000000020000000001000000000100000000020000000001000000000100000000020000000001000000000000002000000000100000010000000200000000000000200000000020000002000000000000000000000000000000000000000,
100010001010200020002020100200100100200200200200,
10201010202020201010202011102000,
40001111111110002222200011111020,
00101020102010111010111010111020,
1211221211212222,
1122112212112012,
1211211211212112,
1011211201112212,
1211221211211212,
100020002000100200200200100000100000200000200000,
10102020202010102000102010221010,
22101022101022101022101020102010,
1021201212121211,
000100100200200100200200100100200200101010100100,
2030221221212212,
00300020102020102010201020111010,
0302121121121221,
200000100000100000200000100000100000200000100100100000100000100000200000100000100010001000100000,
10101110201010201110102020111010,
0302221122112222,
1020212101201122,
1012012120210211,
2012020200300300,
3003003003003030,
3021020101201122,
1011202120210122,
1021020102100300,
1221221101210122,
1021020212112212,
1021020212112212,
111111202020111111222222,
1222221002112212,
1011010120121120,
1011010121121020,
200100200100200200100200100200100200102020102020,
#MEASURE 3/4
22222000
#SCROLL 1.75
3000,
#MEASURE 1/32
3,
#SCROLL 5
,
#SCROLL 4.5
,
#SCROLL 4
,
#SCROLL 3.5
,
#SCROLL 3
,
#SCROLL 2.5
,
#SCROLL 2
,
#MEASURE 4/4
#GOGOSTART
#SCROLL 1
100200100100200200100200100100200100200020002000,
100200200200100200200200100020002000100200200200,
1021221211212212,
1121212211212122,
1222120210212112,
1222122102122121,
100020002000100000100000200000100000200000100000000000200200100000100000200200100000200000200000,
#GOGOEND
#SCROLL 1.5
303030
#SCROLL 1
2210221222,
#GOGOSTART
1021112110210210,
1220120210221020,
3012012011012020,
3021221030121122,
10002010002000101111101111101110,
10002010002000101111101111100000,
3021020211122222,
#GOGOEND
0222121202102222,
1022120210221020,
10001010200010201011202010201000,
11111000300020201020002010102000,
100000200000000000200000100000000000100010001000100000200000200010001000200000000200000020002000,
1030212212112122,
1210212112121212,
100000100200100100100100200200200200101010101010,
1,
,
#END
COURSE:Oni
LEVEL:10
BALLOON:
SCOREINIT:
SCOREDIFF:
NOTESDESIGNER3:Yokoyoko
#START
#MEASURE 2/4
#SCROLL 1.25
20020020020020020020020020020000,
#MEASURE 4/4
#SCROLL 1.5
30
#SCROLL 1
22221022221222,
#SCROLL 1.25
30
#SCROLL 1
22221022221022,
101010200100200200200200100000100200200200100000,
100200200200200000100200200200101010200100200200,
1222112212112212,
1122122212112122,
100000100000100000100100100010001000100010001000,
#MEASURE 1/4
1,
#MEASURE 1/32
#SCROLL 1.25
5,
#SCROLL 0.4
,
#SCROLL 0.6
,
#SCROLL 0.8
,
#SCROLL 1
,
#SCROLL 1.2
,
#SCROLL 1.4
,
#SCROLL 1.6
,
#SCROLL 1.8
,
#SCROLL 2
,
#SCROLL 2.2
8,
#SCROLL 2.4
,
#SCROLL 2.6
,
#SCROLL 2.8
,
#SCROLL 3
,
#SCROLL 3.2
,
#MEASURE 1/4
#BARLINEOFF
#SCROLL 1
222222,
#MEASURE 4/4
#BARLINEON
1222122212010120,
1222122210210122,
1222122210210120,
101010200200100200100100200200100200100100200000,
1222122212010122,
100200200200100200200200102020100100200100200200,
101010101010101010200100200000000000101010101010,
101010200100200200100200000200100100202020100000,
1211221211222112,
100100200100200100100100102020202020100200100100,
202020100000100200100100200100200200100100200100,
200200100100200200200200100020002020100020002020,
100020002020100020002020100200000200101010200200,
100200200100202020202020100100200100200200100200,
100000000000200200200200200000000000
#SCROLL 1.5
300000000000
#SCROLL 1.25
200000002000000020000000100200100000100000200000,
#SCROLL 0.1
00
#SCROLL 1.25
102210102210102210102210102020,
1
#SCROLL 1
211221211212222,
1122112212112012,
1211211211212112,
1011211201112212,
1211221211211212,
100020002000100200200200100000100000200000200000,
10102020202010102000102010221010,
22101022101022101022101020102010,
2020212212221211,
#SCROLL 0.1
000000
#SCROLL 1
100200200100200200100200200200101010100100,
20
#SCROLL 1.5
3000
#SCROLL 1
1221212210,
#SCROLL 0.15
00
#SCROLL 1
102020102020102010201020121120,
#SCROLL 0.2
0
#SCROLL 1
122101101212221,
#SCROLL 0.25
0
#SCROLL 1
122102121121121,
#SCROLL 0.3
000000
#SCROLL 1
100000200200100000100000200200100000100000200200100000200000100000200020002000100000200000,
22
#SCROLL 1.5
3333330
#SCROLL 1
2020220,
1020221202200222,
2002002220220222,
2022020200
#SCROLL 1.5
300300,
3003003003003030,
30
#SCROLL 1
22020222220222,
#SCROLL 1.25
300300
#SCROLL 1
2220220222,
1022020202122122,
1221221101210122,
1021020212112212,
1021020212112212,
111111202020111111222222,
1222221002112212,
1011010120121120,
1011010121121020,
200100200100200200100200100200100200102020102020,
#MEASURE 3/4
22222000
#SCROLL 1.75
3000,
#MEASURE 1/32
3,
#SCROLL 5
,
#SCROLL 4.5
,
#SCROLL 4
,
#SCROLL 3.5
,
#SCROLL 3
,
#SCROLL 2.5
,
#SCROLL 2
,
#MEASURE 4/4
#GOGOSTART
#SCROLL 1
100200100100200200100200100100200100200020002000,
100200200200100200200200100020002000100200200200,
1021221211212212,
1121212211212122,
1222120210212112,
1222122102122121,
100020002000100000100000200000100000200000100000000000200200100000100000200200100000200000200000,
#GOGOEND
#SCROLL 1.5
303030
#SCROLL 1
2210221222,
#GOGOSTART
1211221211212212,
100100200100200200100200100020002000100020002000,
1222102122121120,
100200200200100200200200102020202020100200100100,
200000000000100000200000000000200000000000100000200200100000100000200200100000100000200020002000,
100000000000100000200000000000200000000000100000200200100000100000200200100000100000200020002000,
1021010212221222,
#GOGOEND
#SCROLL 0.1
0
#SCROLL 1
222222222221222,
1222122212021222,
100000000000100200200200101010200100200200200200,
101010100100200000200100200100100100200000200000,
100200200200100020002020100020002020200020002020,
1212212212122122,
1212212121221212,
100000100000100000100100200100100100201010101010,
#MEASURE 1/16
#SCROLL 1.5
5,
#SCROLL 3
,
#SCROLL 2.8
,
#SCROLL 2.6
8,
#MEASURE 4/4
#BARLINEOFF
0,
,
#END
COURSE:Hard
LEVEL:7
BALLOON:8,18
SCOREINIT:
SCOREDIFF:
NOTESDESIGNER2:Yokoyoko
#START
#MEASURE 1/4
#BARLINEOFF
#SCROLL 1.25
,
,
#MEASURE 4/4
#BARLINEON
#SCROLL 1.5
30
#SCROLL 1
00102022201020,
#SCROLL 1.25
30
#SCROLL 1
00201022201020,
1000222010202010,
2000102020102220,
1000101022201020,
1000102220102010,
20117000,
#MEASURE 1/4
8,
#MEASURE 1/32
#SCROLL 1.25
5,
#SCROLL 0.4
,
#SCROLL 0.6
,
#SCROLL 0.8
,
#SCROLL 1
,
#SCROLL 1.2
,
#SCROLL 1.4
,
#SCROLL 1.6
,
#SCROLL 1.8
,
#SCROLL 2
,
#SCROLL 2.2
,
#SCROLL 2.4
,
#SCROLL 2.6
,
#SCROLL 2.8
,
#SCROLL 3
,
#SCROLL 3.2
,
#MEASURE 1/4
#BARLINEOFF
#SCROLL 1
8,
#MEASURE 4/4
#BARLINEON
1000100020111020,
1000100020111020,
1000100020111020,
1000111020102020,
1000100020111020,
1000100010202220,
10022010,
0010201000102220,
1000101110201020,
1000201110201020,
1000201110201020,
1000102220102020,
10301222,
1000101110202020,
100
#SCROLL 1.5
3
#SCROLL 1
2125,
#SCROLL 0.1
0
#SCROLL 1.25
000000000000800,
#SCROLL 1
10221212,
1000222010201020,
1000222010201020,
1000201000102220,
1000202010222010,
1000100010102220,
10221700,
0008,
10122215,
#SCROLL 0.1
8
#SCROLL 1
2112011,
2
#SCROLL 1.5
58
#SCROLL 1
22001,
#SCROLL 0.15
0
#SCROLL 1
010221020105000,
#SCROLL 0.2
0
#SCROLL 1
000000000000000,
#SCROLL 0.25
0
#SCROLL 1
000000000000000,
#SCROLL 0.3
0
#SCROLL 1
000000000000000,
00
#SCROLL 1.5
0000000
#SCROLL 1
8000000,
#SCROLL 1.5
3
#SCROLL 1
2002000,
2020,
20000
#SCROLL 1.5
500,
0008,
#SCROLL 1.25
33000000,
3,
30000
#SCROLL 1.5
500,
0008,
#SCROLL 1
10212212,
10212212,
1000202010002220,
10050080,
1000102010222010,
1000102010222010,
1111
#SCROLL 1.5
5080,
#MEASURE 3/4
#SCROLL 1
02002000
#SCROLL 1.75
3000,
#MEASURE 1/32
3,
#SCROLL 5
,
#SCROLL 4.5
,
#SCROLL 4
,
#SCROLL 3.5
,
#SCROLL 3
,
#SCROLL 2.5
,
#SCROLL 2
,
#MEASURE 4/4
#GOGOSTART
#SCROLL 1.75
30
#SCROLL 1
00010110202010,
1000101010222020,
1000202220102020,
1000102220102010,
1002011020102010,
1002010222010220,
1001010101102020,
#GOGOEND
#SCROLL 1.5
33303030,
#GOGOSTART
30
#SCROLL 1
00102010222010,
1000102220102020,
1002002011020020,
1000102011102022,
2001020220102010,
1002020220102010,
1002020201102010,
#GOGOEND
#SCROLL 0.1
0
#SCROLL 1
000000000002220,
#SCROLL 1.5
30
#SCROLL 1
00102011020110,
2000111020222010,
1000200011020110,
20111010,
#SCROLL 1.5
3030030030300300,
3030030303003030,
32225000,
#MEASURE 1/16
#SCROLL 1.5
,
#SCROLL 3
,
#SCROLL 2.8
,
#SCROLL 2.6
8,
#MEASURE 4/4
#BARLINEOFF
0,
,
#END
COURSE:Normal
LEVEL:7
BALLOON:8,18
SCOREINIT:
SCOREDIFF:
NOTESDESIGNER1:Yokoyoko
#START
#MEASURE 1/4
#BARLINEOFF
#SCROLL 1.25
,
,
#MEASURE 4/4
#BARLINEON
#SCROLL 1.5
3
#SCROLL 1
0122012,
#SCROLL 1.25
3
#SCROLL 1
0212012,
10221021,
20122022,
10112012,
10122021,
20117000,
#MEASURE 1/4
8,
#MEASURE 1/32
#SCROLL 1.25
5,
#SCROLL 0.4
,
#SCROLL 0.6
,
#SCROLL 0.8
,
#SCROLL 1
,
#SCROLL 1.2
,
#SCROLL 1.4
,
#SCROLL 1.6
,
#SCROLL 1.8
,
#SCROLL 2
,
#SCROLL 2.2
,
#SCROLL 2.4
,
#SCROLL 2.6
,
#SCROLL 2.8
,
#SCROLL 3
,
#SCROLL 3.2
,
#MEASURE 1/4
#BARLINEOFF
#SCROLL 1
8,
#MEASURE 4/4
#BARLINEON
10102110,
10102110,
10102110,
10112022,
10102110,
10101220,
10022010,
01210120,
10111012,
10211012,
10211012,
10122022,
10301220,
10111022,
100
#SCROLL 1.5
3
#SCROLL 1
2025,
#SCROLL 0.1
0
#SCROLL 1.25
000000000000800,
#SCROLL 1
10221012,
10221012,
10221012,
10210120,
10221021,
10101120,
10221700,
0008,
10122015,
#SCROLL 0.1
8
#SCROLL 1
2102011,
2
#SCROLL 1.5
58
#SCROLL 1
22001,
#SCROLL 0.15
0
#SCROLL 1
010200020105000,
#SCROLL 0.2
0
#SCROLL 1
000000000000000,
#SCROLL 0.25
0
#SCROLL 1
000000000000000,
#SCROLL 0.3
0
#SCROLL 1
000000000000000,
00
#SCROLL 1.5
0000000
#SCROLL 1
8000000,
#SCROLL 1.5
3
#SCROLL 1
2002000,
2020,
20000
#SCROLL 1.5
500,
0008,
#SCROLL 1.25
33000000,
3,
30000
#SCROLL 1.5
500,
0008,
#SCROLL 1
10212012,
10212012,
10221022,
10050080,
10121021,
10121021,
1011
#SCROLL 1.5
5080,
#MEASURE 3/4
#SCROLL 1
02002000
#SCROLL 1.75
3000,
#MEASURE 1/32
3,
#SCROLL 5
,
#SCROLL 4.5
,
#SCROLL 4
,
#SCROLL 3.5
,
#SCROLL 3
,
#SCROLL 2.5
,
#SCROLL 2
,
#MEASURE 4/4
#GOGOSTART
#SCROLL 1.75
30
#SCROLL 1
00010010202000,
10111022,
10222022,
10122021,
1002001020002010,
1002010200010020,
1001010100102000,
#GOGOEND
#SCROLL 1.5
33303030,
#GOGOSTART
3
#SCROLL 1
0121021,
10122022,
1002002001020020,
10121022,
2001020020102000,
1002020020102000,
1002020200102010,
#GOGOEND
#SCROLL 0.1
0
#SCROLL 1
000000000002020,
#SCROLL 1.5
3000
#SCROLL 1
102010020010,
20112021,
1000200010020010,
20111010,
#SCROLL 1.5
3030030030300300,
3030030303003030,
30225000,
#MEASURE 1/16
#SCROLL 1.5
,
#SCROLL 3
,
#SCROLL 2.8
,
#SCROLL 2.6
8,
#MEASURE 4/4
#BARLINEOFF
0,
,
#END
COURSE:Easy
LEVEL:4
BALLOON:8,18
SCOREINIT:
SCOREDIFF:
NOTESDESIGNER0:Yokoyoko
#START
#MEASURE 1/4
#BARLINEOFF
#SCROLL 1.25
,
,
#MEASURE 4/4
#BARLINEON
#SCROLL 1.5
3
#SCROLL 1
0102010,
#SCROLL 1.25
3
#SCROLL 1
0202010,
1212,
2122,
1121,
1122,
2170,
#MEASURE 1/4
8,
#MEASURE 1/32
#SCROLL 1.25
5,
#SCROLL 0.4
,
#SCROLL 0.6
,
#SCROLL 0.8
,
#SCROLL 1
,
#SCROLL 1.2
,
#SCROLL 1.4
,
#SCROLL 1.6
,
#SCROLL 1.8
,
#SCROLL 2
,
#SCROLL 2.2
,
#SCROLL 2.4
,
#SCROLL 2.6
,
#SCROLL 2.8
,
#SCROLL 3
,
#SCROLL 3.2
,
#MEASURE 1/4
#BARLINEOFF
#SCROLL 1
8,
#MEASURE 4/4
#BARLINEON
1121,
1121,
1121,
1122,
1121,
1112,
1021,
0202,
1111,
1211,
1211,
1122,
1312,
1112,
100
#SCROLL 1.5
0
#SCROLL 1
2025,
#SCROLL 0.1
0
#SCROLL 1.25
000000000000800,
#SCROLL 1
1211,
1211,
1211,
1202,
1212,
1112,
10201700,
0008,
10102015,
#SCROLL 0.1
8
#SCROLL 1
0102010,
2
#SCROLL 1.5
58
#SCROLL 1
02000,
#SCROLL 0.15
0
#SCROLL 1
000200020005000,
#SCROLL 0.2
0
#SCROLL 1
000000000000000,
#SCROLL 0.25
0
#SCROLL 1
000000000000000,
#SCROLL 0.3
0
#SCROLL 1
000000000000000,
00
#SCROLL 1.5
0000000
#SCROLL 1
8000000,
#SCROLL 1.5
3
#SCROLL 1
0002000,
2020,
20000
#SCROLL 1.5
500,
0008,
#SCROLL 1.25
3,
3,
30000
#SCROLL 1.5
500,
0008,
#SCROLL 1
1221,
1221,
1212,
10050080,
1112,
1112,
11
#SCROLL 1.5
58,
#MEASURE 3/4
#SCROLL 1
02
#SCROLL 1.75
3,
#MEASURE 1/32
3,
#SCROLL 5
,
#SCROLL 4.5
,
#SCROLL 4
,
#SCROLL 3.5
,
#SCROLL 3
,
#SCROLL 2.5
,
#SCROLL 2
,
#MEASURE 4/4
#GOGOSTART
#SCROLL 1.75
3
#SCROLL 1
0001020,
1112,
1222,
1122,
1022,
1,
1002,
#GOGOEND
#SCROLL 1.5
3333,
#GOGOSTART
3
#SCROLL 1
0101020,
1122,
1,
1112,
2022,
1022,
1002,
#GOGOEND
#SCROLL 0.1
0
#SCROLL 1
000000000002000,
#SCROLL 1.5
3
#SCROLL 1
0101000,
2122,
1210,
2111,
#SCROLL 1.5
3030,
3003,
3250,
#MEASURE 1/16
#SCROLL 1.5
,
#SCROLL 3
,
#SCROLL 2.8
,
#SCROLL 2.6
8,
#MEASURE 4/4
#BARLINEOFF
0,
,
#END