Files
2025-06-11 19:53:16 -04:00

1341 lines
13 KiB
Plaintext

TITLE:πevergod
SUBTITLE:--nm-y / 【BOF:NT】
TITLEJA:πevergod
SUBTITLEJA:nm-y 「【BOF:NT】」より
PREIMAGE:nevergod.jpg
BGMOVIE:nevergod.mp4
WAVE:nevergod.ogg
BPM:175
OFFSET:-1.32
DEMOSTART:116.135
GENRE:バラエティ
MAKER:Colin
COURSE:Easy
LEVEL:3
BALLOON:6,4
SCOREINIT:
SCOREDIFF:
NOTESDESIGNER0:Colin
#START
#BARLINEOFF
0,
,
#BARLINEON
3,
,
,
,
1,
1,
1,
,
3,
1010,
1,
1010,
1,
1010,
1,
3,
#GOGOSTART
3010,
1110,
1010,
1,
2020,
2220,
2020,
2,
7,
0080,
7,
#GOGOEND
8,
#GOGOSTART
2020,
20
#GOGOEND
20,
2,
#BPMCHANGE 150
00
#BPMCHANGE 130
00,
#BPMCHANGE 175
2,
,
#BPMCHANGE 185
2020,
2,
2,
#BPMCHANGE 200
2,
2,
,
#GOGOSTART
3010,
1,
1011,
1,
2020,
2,
2022,
2,
1,
1,
1010,
1,
1,
1,
1,
,
#GOGOEND
2,
,
2,
,
2,
,
2,
,
3,
,
1,
,
1,
,
1,
,
3010,
1,
2020,
2,
1010,
1,
2020,
2,
1010,
1010,
1,
1,
1010,
1010,
1,
1011,
#GOGOSTART
3010,
1110,
1010,
1,
2020,
2220,
2020,
200
#GOGOEND
0,
#GOGOSTART
40
#GOGOEND
0
#GOGOSTART
00
#GOGOEND
0
#GOGOSTART
0
#GOGOEND
0,
#GOGOSTART
3010,
1110,
1010,
1,
2020,
2220,
2020,
#GOGOEND
2,
4,
#BARLINEOFF
0,
,
#BARLINEON
3,
,
1,
1,
1,
,
2,
2,
2,
,
1,
1,
1,
,
1,
1,
3,
#END
COURSE:Normal
LEVEL:5
BALLOON:6,4
SCOREINIT:
SCOREDIFF:
NOTESDESIGNER1:Colin
#START
#BARLINEOFF
0,
,
#BARLINEON
3,
,
,
,
1,
1,
1,
,
3,
1011,
1,
10001011,
1,
1011,
10101011,
3,
#GOGOSTART
30001011,
1110,
1011,
1,
20002022,
2220,
2022,
2,
7,
0080,
7,
#GOGOEND
8,
#GOGOSTART
20002022,
2000
#GOGOEND
2022,
2,
#BPMCHANGE 150
00
#BPMCHANGE 130
00,
#BPMCHANGE 175
20020000,
20020000,
#BPMCHANGE 185
20020000,
20020000,
20020000,
#BPMCHANGE 200
2020,
2,
,
#GOGOSTART
30001011,
1110,
1011,
1,
20002022,
2220,
2022,
2,
1010,
1110,
10001011,
1,
1011,
1010,
1010,
1,
#GOGOEND
2,
2,
2,
,
2,
2,
2,
,
3,
1001,
1010,
1,
1,
1,
10001101,
1,
3010,
1110,
2020,
2,
1010,
1110,
2020,
2,
10101011,
1010,
10101011,
10010000,
10111000,
10111000,
10111010,
10111010,
#GOGOSTART
30001011,
1110,
1011,
1,
20002022,
2220,
2022,
200
#GOGOEND
0,
#GOGOSTART
40
#GOGOEND
0
#GOGOSTART
00
#GOGOEND
0
#GOGOSTART
0
#GOGOEND
0,
#GOGOSTART
30001011,
1110,
1010,
1,
20002022,
20202022,
2220,
#GOGOEND
2,
4,
#BARLINEOFF
0,
,
#BARLINEON
3,
,
1,
1,
1,
,
2,
2,
2,
,
1,
1,
1,
,
1,
1,
3,
#END
COURSE:Hard
LEVEL:8
BALLOON:8,32,28,32
SCOREINIT:
SCOREDIFF:
NOTESDESIGNER2:Colin
#START
#BARLINEOFF
0,
,
#BARLINEON
3,
,
1020,
1020,
10120122,
10020022,
10020022,
1020,
20120101,
22120000,
10012001,
2000000020001011,
10120022,
10021021,
20020010,
2,
#GOGOSTART
3333,
30303333,
30303330,
3330,
30201120,
10201122,
1022202010102000,
10221120,
1010101010111010,
1111100010001000,
10201120,
#GOGOEND
1001101010201020,
#GOGOSTART
5805805805802020,
70
#GOGOEND
80,
7,
#BPMCHANGE 150
00
#BPMCHANGE 130
00,
#BPMCHANGE 175
8,
30030000,
#BPMCHANGE 185
30030000,
3003003030003000,
30030030,
#BPMCHANGE 200
03003030,
31111111,
1,
#GOGOSTART
3002002010102000,
1002002010222020,
11201020,
1000202011111020,
1002002010102000,
1002002010222020,
11201020,
1000202011111020,
1020,
1000100020222020,
1020,
1120,
10210120,
10211220,
10210212,
30202222,
#GOGOEND
3,
,
1020,
1020,
10010022,
10010012,
10010022,
1020,
11210202,
12122002,
10012022,
10210012,
10010022,
1020,
10010000,
1011101020202020,
1111,
12121000,
1111,
12121000,
1111,
12121020,
10201120,
10201120,
10205858,
10201120,
5858,
5858,
7,
,
,
0080,
#GOGOSTART
30201120,
12121020,
10201120,
10201120,
1011101020001020,
1000201110222020,
1002201020202000,
101020111010
#GOGOEND
2000,
#GOGOSTART
3003
#GOGOEND
00
#GOGOSTART
3030
#GOGOEND
00
#GOGOSTART
30
#GOGOEND
00,
#GOGOSTART
30221120,
1002202010102000,
1022200010102020,
1001001001001010,
1001001001001010,
7,
,
#GOGOEND
8,
,
#BARLINEOFF
0,
,
#BARLINEON
2002,
1002,
10010020,
1012,
10020020,
1012,
10020020,
10022020,
1002,
1002,
10010010,
1012,
10020020,
1012,
10020020,
10022000,
3,
#END
COURSE:Oni
LEVEL:9
BALLOON:16,1,1,1,1,1,1,4,8,32
SCOREINIT:
SCOREDIFF:
NOTESDESIGNER3:Colin
#START
#BARLINEOFF
0,
,
#BARLINEON
3000201000100011,
22121000,
1020,
1020,
10120022,
10120122,
10120022,
10112011,
10101012,
10101012,
10101012,
10101012,
1010101110101010,
1011101110111010,
7,
8,
#GOGOSTART
32323232,
3020120210303030,
3020302030121012,
1020120210000000,
3020112012021020,
10002000101020002200220022002200,
20202020780078007800780078007800,
7000802120212020,
3010101010101011,
1111101010003000,
32323232,
#GOGOEND
1202102010221020,
#GOGOSTART
1202202202202222,
100200200200100200200200
#GOGOEND
100000002000100000200000,
1111111170008000,
#BPMCHANGE 150
3333
#BPMCHANGE 130
3000,
#BPMCHANGE 175
3000202000222020,
10210220,
#BPMCHANGE 185
1000201000112020,
1021021010201020,
1020121020221020,
#BPMCHANGE 200
1210201210201011,
#SCROLL 1
1
#SCROLL 1.0625
1
#SCROLL 1.125
1
#SCROLL 1.1875
1
#SCROLL 1.25
1
#SCROLL 1.3125
1
#SCROLL 1.375
1
#SCROLL 1.4375
1,
#SCROLL 1.5
1
#SCROLL 1
000000000000000,
#GOGOSTART
3000201212102000,
1000200210102222,
1011202011112222,
1000202211112020,
1011201211102020,
1000200210102020,
1111202211112022,
1011201020112222,
10102011,
0020100020101122,
1011011020102222,
1011011022112222,
1000201212102020,
1001201020112020,
1000201000102222,
1010201120202222,
#GOGOEND
10030030,
00000022,
30030000,
3030,
30030000,
30030022,
30030000,
30003022,
3000201000100011,
22121022,
1002101020021020,
10112000,
11210122,
10210121,
20120011,
1122102210221020,
30101210,
10101212,
10101210,
10101212,
1001201010112020,
1000202010102022,
1000201212102022,
1000202211112020,
1011101010101010,
1011101010101010,
1011101010101010,
1111,
1011101110111011,
1011101110111010,
1111111111111111,
2222222222222222,
#GOGOSTART
10201121,
1011221122112211,
2012101020102021,
2201220120112020,
1101201020001020,
1011101020112020,
10211121,
211121112111
#GOGOEND
2111,
#GOGOSTART
20
#GOGOEND
1
#GOGOSTART
20
#GOGOEND
1
#GOGOSTART
2
#GOGOEND
0,
#GOGOSTART
3010201210002000,
1101201021012010,
2211202022112020,
3003003003003030,
3003003003006080,
9,
,
#GOGOEND
8,
,
#BARLINEOFF
0,
,
#BARLINEON
2002,
1002,
10010020,
1012,
10020020,
1012,
10020020,
1000002020002222,
1002,
1002,
10010010,
1012,
10020020,
1012,
10020020,
10022000,
3,
#END
COURSE:Edit
LEVEL:10
SCOREINIT:
SCOREDIFF:
NOTESDESIGNER4:Colin
#START
#BARLINEOFF
0,
,
#BARLINEON
3010201000100021,
21211000,
20112000,
20112000,
10120022,
10120122,
10120122,
10122020,
1211222211212222,
1211222211212222,
1211221122221122,
1211212222221122,
1010101110101011,
101010100100100000100000101010100100100000100000,
100010001000100000100000100010001000100000100000200200000000200200000000200200000000200200000000,
20002020222020200000000000000000,
#GOGOSTART
#SCROLL 1.3
3
#SCROLL 1
2
#SCROLL 1.3
3
#SCROLL 1
2
#SCROLL 1.3
3
#SCROLL 1
2
#SCROLL 1.3
3
#SCROLL 1
2,
#SCROLL 1.3
30
#SCROLL 1
20
#SCROLL 1.3
3
#SCROLL 1
202
#SCROLL 1.3
30303030,
#SCROLL 1.3
30
#SCROLL 1
20
#SCROLL 1.3
30
#SCROLL 1
20
#SCROLL 1.3
303
#SCROLL 1
2
#SCROLL 1.3
303
#SCROLL 1
2,
#SCROLL 1.3
30
#SCROLL 1
20
#SCROLL 1.3
3
#SCROLL 1
202
#SCROLL 1.3
30000000,
#SCROLL 1
22101000221010002210100022101000,
22101000221010002200220022002200,
20202020110011001100110011001100,
10101110200020102000201020002000,
3011102010212020,
100100101010100000100000100000200200100000200000,
#SCROLL 1.3
3
#SCROLL 1
2
#SCROLL 1.3
3
#SCROLL 1
2
#SCROLL 1.3
3
#SCROLL 1
2
#SCROLL 1.3
3
#SCROLL 1
2,
#GOGOEND
1202102010221020,
#GOGOSTART
100200100100200101010200100100200100200200200200,
100100100100200000200000100100100100200000200000
#GOGOEND
100000000000000020000000100000000000200000000000,
100000100000100000100000100000100000100000100000100010001000100010001000200200200200200200200200,
#BPMCHANGE 150
#SCROLL 1.16667
2
#SCROLL 1
00
#SCROLL 1
200
#SCROLL 0.955555
200
#SCROLL 0.911111
200
#BPMCHANGE 130
#SCROLL 1
300000000000,
#BPMCHANGE 175
1000201000222020,
10210220,
#BPMCHANGE 185
1000201000112020,
1021021010201020,
1020121020221020,
#BPMCHANGE 200
1210201210201011,
#SCROLL 1
1
#SCROLL 1.0625
1
#SCROLL 1.125
1
#SCROLL 1.1875
1
#SCROLL 1.25
1
#SCROLL 1.3125
1
#SCROLL 1.375
1
#SCROLL 1.4375
1,
#SCROLL 1.5
1
#SCROLL 1
000000011221122,
#GOGOSTART
10002020102000221000101020222220,
10002020101020201000201020202222,
1021220120212212,
10002011101020001020102020200020,
10102000200010202000112020202020,
1012102120112222,
1022012011221120,
10001120201000102000102000102000,
10002211200010002000101020002000,
10201000221120002000101020202020,
10001122100010002000101020002000,
1021021020112222,
10000000200011111000101020202020,
1101210210201122,
1101202120102212,
20001000200010002210221020202020,
#GOGOEND
10030030,
00000022,
30030000,
3030,
30030000,
30030022,
30030000,
30003022,
3000201000100011,
22121022,
1002101020021020,
10112000,
11210122,
10210121,
20120011,
10102020102220202220200022222000,
1211221211212222,
1211222211212212,
1211221122221122,
1211212221221122,
1211221211212222,
1211221211212222,
1211221122121122,
1211212212221122,
10001020101010101111101011111111,
10201020102010101111101011101110,
10001020100010001111100011111000,
10001020100010202222200022222000,
10101010101010101111101011101110,
11111111101010101111111110101010,
222022202220222022202220
#SCROLL 1
2
#SCROLL 1.07572
2
#SCROLL 1.15144
2
#SCROLL 1.22716
2
#SCROLL 1.30288
2
#SCROLL 1.37861
2
#SCROLL 1.45433
2
#SCROLL 1.53005
2,
#SCROLL 1.60577
2
#SCROLL 1.68149
2
#SCROLL 1.75721
2
#SCROLL 1.83293
2
#SCROLL 1.90865
2
#SCROLL 1.98437
2
#SCROLL 2.06009
2
#SCROLL 2.13582
2
#SCROLL 2.21154
2
#SCROLL 2.28726
2
#SCROLL 2.36298
2
#SCROLL 2.4387
2
#SCROLL 2.51442
2
#SCROLL 2.59014
2
#SCROLL 2.66586
2
#SCROLL 2.74158
2
#SCROLL 2.8173
2
#SCROLL 2.89303
2
#SCROLL 2.96875
2
#SCROLL 3.04447
2
#SCROLL 3.12019
2
#SCROLL 3.19591
2
#SCROLL 3.27163
2
#SCROLL 3.34735
2
#SCROLL 3.42307
2
#SCROLL 3.49879
2
#SCROLL 3.57451
2
#SCROLL 3.65024
2
#SCROLL 3.72596
2
#SCROLL 3.80168
2
#SCROLL 3.8774
2
#SCROLL 3.95312
2,
#GOGOSTART
#SCROLL 1
3021201211012021,
200100200100200100100200200100201010200100200200,
1021202120212022,
11101000111110001111111122222222,
10001110100010002000222220002000,
10001111100010001000201020001000,
2111211212112221,
200011112000102010202010
#GOGOEND
20101010,
#GOGOSTART
20001122
#GOGOEND
1000
#GOGOSTART
40001122
#GOGOEND
1000
#GOGOSTART
4000
#GOGOEND
0000,
#GOGOSTART
3021201121012020,
1202221211212112,
1022121220212020,
10202010202010202010202022222222,
10202010202010202010202022222222,
1111111111111111,
#SCROLL 1
1
#SCROLL 1.03125
1
#SCROLL 1.0625
1
#SCROLL 1.09375
1
#SCROLL 1.125
1
#SCROLL 1.15625
1
#SCROLL 1.1875
1
#SCROLL 1.21875
1
#SCROLL 1.25
1
#SCROLL 1.28125
1
#SCROLL 1.3125
1
#SCROLL 1.34375
1
#SCROLL 1.375
1
#SCROLL 1.40625
1
#SCROLL 1.4375
1
#SCROLL 1.46875
1
#SCROLL 1.5
2
#SCROLL 1.53125
2
#SCROLL 1.5625
2
#SCROLL 1.59375
2
#SCROLL 1.625
2
#SCROLL 1.65625
2
#SCROLL 1.6875
2
#SCROLL 1.71875
2
#SCROLL 1.75
2
#SCROLL 1.78125
2
#SCROLL 1.8125
2
#SCROLL 1.84375
2
#SCROLL 1.875
2
#SCROLL 1.90625
2
#SCROLL 1.9375
2
#SCROLL 1.96875
2,
#MEASURE 1/16
#GOGOEND
#SCROLL 2
1,
#SCROLL -2
0,
#SCROLL 2
0,
#SCROLL -2
0,
#SCROLL 2
0,
#SCROLL -2
0,
#SCROLL 2
0,
#SCROLL -2
0,
#SCROLL 2
0,
#SCROLL -2
0,
#SCROLL 2
0,
#SCROLL -2
0,
#SCROLL 2
0,
#SCROLL -2
0,
#SCROLL 2
0,
#SCROLL -2
0,
#MEASURE 1/32
#SCROLL 4
3,
#SCROLL 8
0,
#SCROLL 7.93617
0,
#SCROLL 7.87234
0,
#SCROLL 7.80851
0,
#SCROLL 7.74468
0,
#SCROLL 7.68085
0,
#SCROLL 7.61702
0,
#SCROLL 7.55319
0,
#SCROLL 7.48936
0,
#SCROLL 7.42553
0,
#SCROLL 7.3617
0,
#SCROLL 7.29787
0,
#SCROLL 7.23404
0,
#SCROLL 7.17021
0,
#SCROLL 7.10638
0,
#SCROLL 7.04255
0,
#SCROLL 6.97872
0,
#SCROLL 6.91489
0,
#SCROLL 6.85106
0,
#SCROLL 6.78723
0,
#SCROLL 6.7234
0,
#SCROLL 6.65957
0,
#SCROLL 6.59574
0,
#SCROLL 6.53191
0,
#SCROLL 6.46809
0,
#SCROLL 6.40426
0,
#SCROLL 6.34043
0,
#SCROLL 6.2766
0,
#SCROLL 6.21277
0,
#SCROLL 6.14894
0,
#SCROLL 6.08511
0,
#SCROLL 6.02128
0,
#SCROLL 5.95745
0,
#SCROLL 5.89362
0,
#SCROLL 5.82979
0,
#SCROLL 5.76596
0,
#SCROLL 5.70213
0,
#SCROLL 5.6383
0,
#SCROLL 5.57447
0,
#SCROLL 5.51064
0,
#SCROLL 5.44681
0,
#SCROLL 5.38298
0,
#SCROLL 5.31915
0,
#SCROLL 5.25532
0,
#SCROLL 5.19149
0,
#SCROLL 5.12766
0,
#SCROLL 5.06383
0,
#SCROLL 5
0,
#SCROLL 4.93617
0,
#SCROLL 4.87234
0,
#SCROLL 4.80851
0,
#SCROLL 4.74468
0,
#SCROLL 4.68085
0,
#SCROLL 4.61702
0,
#SCROLL 4.55319
0,
#SCROLL 4.48936
0,
#SCROLL 4.42553
0,
#SCROLL 4.3617
0,
#SCROLL 4.29787
0,
#SCROLL 4.23404
0,
#SCROLL 4.17021
0,
#SCROLL 4.10638
0,
#SCROLL 4.04255
0,
#SCROLL 3.97872
0,
#SCROLL 3.91489
0,
#SCROLL 3.85106
0,
#SCROLL 3.78723
0,
#SCROLL 3.7234
0,
#SCROLL 3.65957
0,
#SCROLL 3.59574
0,
#SCROLL 3.53191
0,
#SCROLL 3.46809
0,
#SCROLL 3.40426
0,
#SCROLL 3.34043
0,
#SCROLL 3.2766
0,
#SCROLL 3.21277
0,
#SCROLL 3.14894
0,
#SCROLL 3.08511
0,
#SCROLL 3.02128
0,
#SCROLL 2.95745
0,
#SCROLL 2.89362
0,
#SCROLL 2.82979
0,
#SCROLL 2.76596
0,
#SCROLL 2.70213
0,
#SCROLL 2.6383
0,
#SCROLL 2.57447
0,
#SCROLL 2.51064
0,
#SCROLL 2.44681
0,
#SCROLL 2.38298
0,
#SCROLL 2.31915
0,
#SCROLL 2.25532
0,
#SCROLL 2.19149
0,
#SCROLL 2.12766
0,
#SCROLL 2.06383
0,
#SCROLL 2
0,
#MEASURE 4/4
#BARLINEON
#SCROLL 1
2002,
1002,
10010020,
1012,
10020020,
1012,
10020020,
1000002020002222,
1002,
1002,
10010010,
1012,
10020020,
1012,
10020020,
10022000,
#SCROLL 2
3
#SCROLL 1
000000000000000,
#END