generated from DragonRatTiger/Custom-Charts
326 lines
4.0 KiB
Plaintext
326 lines
4.0 KiB
Plaintext
//
|
|
TITLE:Future Stream
|
|
SUBTITLE:--sphere / First Love Limited.
|
|
BPM:133
|
|
WAVE:Future Stream.ogg
|
|
OFFSET:-0.216
|
|
DEMOSTART:57.058
|
|
MAKER:sakurada0291 & Colin
|
|
SONGVOL:95
|
|
SEVOL:80
|
|
|
|
|
|
COURSE:Edit
|
|
LEVEL:9
|
|
SCOREINIT:
|
|
SCOREDIFF:
|
|
NOTESDESIGNER4:Colin
|
|
|
|
#START
|
|
1012011221012121,
|
|
2021012212112010,
|
|
1012012121012011,
|
|
2021021030030030,
|
|
1011201212112022,
|
|
1012121211012010,
|
|
1121221212112211,
|
|
100000100000200020002000100000100000100000200000100000000000000000100100200000000000000000000000,
|
|
3022112211212122,
|
|
1122121212112211,
|
|
1121201211221120,
|
|
1121212212112010,
|
|
1211221212112010,
|
|
1121201211221212,
|
|
1021021122212210,
|
|
3003003030121120,
|
|
3022112211212122,
|
|
1122121212112211,
|
|
1121201211221120,
|
|
1121212212112010,
|
|
1211221212112010,
|
|
1121201211221212,
|
|
1021021122212212,
|
|
10202010201020221020102010102000,
|
|
1011201210112012,
|
|
1022121020112010,
|
|
1222121012212022,
|
|
1022121020112012,
|
|
2211221122112211,
|
|
2211221122112211,
|
|
20002010200010112020201020102000,
|
|
300000400000400000100200100200100000200000202020,
|
|
1011201212112012,
|
|
1011211210112210,
|
|
2111201211212010,
|
|
0011201222102022,
|
|
1011201212112022,
|
|
1011201212112011,
|
|
2021201212212012,
|
|
10101010202010112010101020202020,
|
|
1011201212112012,
|
|
1011211210112210,
|
|
2111201211212010,
|
|
0011201222102022,
|
|
1011201212112022,
|
|
1021021010210210,
|
|
2111201212212012,
|
|
1000202210210211,
|
|
200000200100200000100200100200100000200200101010,
|
|
21100000,
|
|
#END
|
|
|
|
|
|
COURSE:Oni
|
|
LEVEL:8
|
|
SCOREINIT:
|
|
SCOREDIFF:
|
|
NOTESDESIGNER3:sakurada0291
|
|
|
|
#START
|
|
10022021,
|
|
10022021,
|
|
10022021,
|
|
1000002030030030,
|
|
1011201210102210,
|
|
1011201112102020,
|
|
1111201011112010,
|
|
1111221120002000,
|
|
1001202012112020,
|
|
1011221021121020,
|
|
2011201212102210,
|
|
2012112011112022,
|
|
1001201210102210,
|
|
2011201210102210,
|
|
1201201021021020,
|
|
3004003040004000,
|
|
1001202012112020,
|
|
2011221021121020,
|
|
1011201210212010,
|
|
0011202011112022,
|
|
1001201210102210,
|
|
2011201210102210,
|
|
1201221021021120,
|
|
1011221122112020,
|
|
5084,
|
|
5084,
|
|
5084,
|
|
5084,
|
|
1011202010221020,
|
|
1011202010212020,
|
|
1001201212112030,
|
|
0030300210112210,
|
|
#GOGOSTART
|
|
1001201211102022,
|
|
1011201210212010,
|
|
2011201121202010,
|
|
0011202212102022,
|
|
1001201210102210,
|
|
1001202211102022,
|
|
1201201021021020,
|
|
1001201122112220,
|
|
1001201211102022,
|
|
1011201210212010,
|
|
2011201121202010,
|
|
0011202212102022,
|
|
1001201210102210,
|
|
3003003040040040,
|
|
1010202212102022,
|
|
1000200030030050,
|
|
0000080
|
|
#GOGOEND
|
|
3,
|
|
03300000,
|
|
#END
|
|
|
|
|
|
COURSE:Hard
|
|
LEVEL:7
|
|
BALLOON:16
|
|
SCOREINIT:
|
|
SCOREDIFF:
|
|
NOTESDESIGNER2:sakurada0291
|
|
|
|
#START
|
|
10022000,
|
|
10022000,
|
|
10022000,
|
|
1000002030030030,
|
|
10201121,
|
|
10211120,
|
|
1110200011102000,
|
|
1111100020002000,
|
|
1000201010011020,
|
|
1000201020022020,
|
|
1000201110002010,
|
|
2002002010102220,
|
|
10211121,
|
|
2000200010002220,
|
|
1001101020022020,
|
|
3003003040004000,
|
|
1000201010011020,
|
|
2000101020022020,
|
|
1000201110002010,
|
|
0000201010102220,
|
|
10211121,
|
|
2000200010102220,
|
|
1001101020022020,
|
|
1011101020002000,
|
|
1001001010000022,
|
|
2002002020002000,
|
|
1001101020022020,
|
|
1001001020222000,
|
|
1010202010111020,
|
|
1010202010222020,
|
|
1000201110102030,
|
|
0030300010102220,
|
|
#GOGOSTART
|
|
1000201110102020,
|
|
1000201010102220,
|
|
10202221,
|
|
0010201110102020,
|
|
1000201110102000,
|
|
1000202220102000,
|
|
1001101020022020,
|
|
1000202011102220,
|
|
1000201110102020,
|
|
1000201010102220,
|
|
10202221,
|
|
0010201110102020,
|
|
1000201110102000,
|
|
3003003040040040,
|
|
6008,
|
|
1000200030030070,
|
|
0000000
|
|
#GOGOEND
|
|
8,
|
|
03300000,
|
|
#END
|
|
|
|
|
|
COURSE:Normal
|
|
LEVEL:5
|
|
BALLOON:12,22
|
|
SCOREINIT:
|
|
SCOREDIFF:
|
|
NOTESDESIGNER1:sakurada0291
|
|
|
|
#START
|
|
1020,
|
|
1020,
|
|
1020,
|
|
1030,
|
|
10201120,
|
|
10201120,
|
|
1011,
|
|
2022,
|
|
10001011,
|
|
10102220,
|
|
10015000,
|
|
00802220,
|
|
10011010,
|
|
2210,
|
|
10011000,
|
|
3033,
|
|
10001011,
|
|
10102220,
|
|
10015000,
|
|
00802220,
|
|
1011,
|
|
2022,
|
|
1122,
|
|
1022,
|
|
10011000,
|
|
20022000,
|
|
10011020,
|
|
20011020,
|
|
10101010,
|
|
20202020,
|
|
7,
|
|
0800,
|
|
#GOGOSTART
|
|
10011020,
|
|
10022020,
|
|
10102201,
|
|
00011020,
|
|
10111010,
|
|
20222020,
|
|
10012002,
|
|
10001122,
|
|
10011020,
|
|
10022020,
|
|
10102201,
|
|
00011020,
|
|
10111010,
|
|
3030,
|
|
6008,
|
|
10000009,
|
|
0000000
|
|
#GOGOEND
|
|
0,
|
|
0800,
|
|
#END
|
|
|
|
|
|
COURSE:Easy
|
|
LEVEL:3
|
|
BALLOON:10,12
|
|
SCOREINIT:
|
|
SCOREDIFF:
|
|
NOTESDESIGNER0:sakurada0291
|
|
|
|
#START
|
|
1,
|
|
1,
|
|
1,
|
|
1,
|
|
1010,
|
|
1,
|
|
1010,
|
|
2020,
|
|
1001,
|
|
1002,
|
|
5,
|
|
0800,
|
|
1010,
|
|
2,
|
|
1010,
|
|
3,
|
|
1001,
|
|
1002,
|
|
5,
|
|
0800,
|
|
1010,
|
|
2020,
|
|
1010,
|
|
1,
|
|
1,
|
|
2,
|
|
1,
|
|
2,
|
|
1010,
|
|
2020,
|
|
7,
|
|
0800,
|
|
#GOGOSTART
|
|
1011,
|
|
1022,
|
|
1020,
|
|
1,
|
|
1011,
|
|
2022,
|
|
1020,
|
|
1,
|
|
1011,
|
|
1022,
|
|
1020,
|
|
1,
|
|
1011,
|
|
3030,
|
|
6,
|
|
80000009,
|
|
0000000
|
|
#GOGOEND
|
|
0,
|
|
0800,
|
|
#END
|