Files
Colins_Custom_Charts/02 Anime/asphyxia/asphyxia.tja
T
2025-06-11 19:53:16 -04:00

787 lines
8.8 KiB
Plaintext
Raw Blame History

This file contains ambiguous Unicode characters
This file contains Unicode characters that might be confused with other characters. If you think that this is intentional, you can safely ignore this warning. Use the Escape button to reveal them.
TITLE:asphyxia
SUBTITLE:--Cö shu Nie / Tokyo Ghoul:re
TITLEJA:asphyxia
SUBTITLEJA:Cö shu Nie 「東京喰種:re」より
PREIMAGE:asphyxia.jpg
BGMOVIE:asphyxia.mp4
WAVE:asphyxia.ogg
BPM:109
OFFSET:-1.870
DEMOSTART:51.972
MAKER:Colin
COURSE:Easy
LEVEL:4
SCOREINIT:
SCOREDIFF:
NOTESDESIGNER0:Colin
#START
#SCROLL 1.05505
3
#BPMCHANGE 119
#SCROLL 0.966387
0
#BPMCHANGE 113
#SCROLL 1.0177
3
#BPMCHANGE 121
#SCROLL 0.950413
0,
#BPMCHANGE 116
#SCROLL 0.991379
3
#BPMCHANGE 121
#SCROLL 0.950413
0
#BPMCHANGE 110
#SCROLL 1.04545
0
#BPMCHANGE 122
#SCROLL 0.942623
0,
#BPMCHANGE 117
#SCROLL 0.982906
30
#BPMCHANGE 110
#SCROLL 1.04545
3
#BPMCHANGE 107
#SCROLL 1.07477
0,
#BPMCHANGE 99
#SCROLL 1.16162
60
#BPMCHANGE 102
#SCROLL 1.12745
0
#BPMCHANGE 110.5
#SCROLL 1.04072
0,
#BPMCHANGE 152
#SCROLL 1.01974
8010,
#BPMCHANGE 155
#SCROLL 1
100
#BPMCHANGE 143
#SCROLL 1.08392
0,
#BPMCHANGE 154
#SCROLL 1.00649
1010,
#BPMCHANGE 156
#SCROLL 0.99359
1,
#GOGOSTART
#BPMCHANGE 155
#SCROLL 1
1011,
1010,
1011,
#BPMCHANGE 154
#SCROLL 1.00649
1010,
#BPMCHANGE 155
#SCROLL 1
2022,
2020,
2010,
1011,
#MEASURE 2/4
#GOGOEND
1,
#MEASURE 4/4
#BPMCHANGE 154
#SCROLL 1.00649
1010,
#BPMCHANGE 155
#SCROLL 1
1,
1010,
1,
2020,
2,
2020,
#MEASURE 3/4
#BPMCHANGE 156
#SCROLL 0.99359
2,
#BPMCHANGE 155
#SCROLL 1
2,
2,
1,
2,
1,
111,
011,
1,
#MEASURE 2/4
,
#MEASURE 3/4
#GOGOSTART
#BPMCHANGE 165
#SCROLL 1
6,
#MEASURE 5/8
0000080000,
#MEASURE 3/4
6,
000800,
6,
#MEASURE 5/8
00080,
#MEASURE 3/4
#BPMCHANGE 166
#SCROLL 0.993976
300300,
300300,
#BPMCHANGE 165
#SCROLL 1
6,
#MEASURE 5/8
00080,
#MEASURE 3/4
6,
#BPMCHANGE 164
#SCROLL 1.0061
000800,
#BPMCHANGE 165
#SCROLL 1
100100,
#MEASURE 5/8
1,
#MEASURE 3/4
1,
1,
200200,
#MEASURE 5/8
2,
#MEASURE 3/4
#BPMCHANGE 167
#SCROLL 0.988024
200200,
#BPMCHANGE 163
#SCROLL 1.01227
2,
#BPMCHANGE 164
#SCROLL 1.0061
200200,
#MEASURE 5/8
#BPMCHANGE 165
#SCROLL 1
2,
#MEASURE 3/4
400400,
400400,
100100,
#MEASURE 5/8
1,
#MEASURE 3/4
100100,
110,
1,
#MEASURE 5/8
10010,
#MEASURE 3/4
1,
1,
#GOGOEND
#BPMCHANGE 163
#SCROLL 1.01227
2,
#BPMCHANGE 167
#SCROLL 0.988024
2,
#GOGOSTART
#BPMCHANGE 165
#SCROLL 1
6,
00000000000
#GOGOEND
8,
#END
COURSE:Normal
LEVEL:6
SCOREINIT:
SCOREDIFF:
NOTESDESIGNER1:Colin
#START
#SCROLL 1.05505
3
#BPMCHANGE 119
#SCROLL 0.966387
0
#BPMCHANGE 113
#SCROLL 1.0177
3
#BPMCHANGE 121
#SCROLL 0.950413
0,
#BPMCHANGE 116
#SCROLL 0.991379
3
#BPMCHANGE 121
#SCROLL 0.950413
0
#BPMCHANGE 110
#SCROLL 1.04545
3
#BPMCHANGE 122
#SCROLL 0.942623
0,
#BPMCHANGE 117
#SCROLL 0.982906
30
#BPMCHANGE 110
#SCROLL 1.04545
3
#BPMCHANGE 107
#SCROLL 1.07477
3,
#BPMCHANGE 99
#SCROLL 1.16162
60
#BPMCHANGE 102
#SCROLL 1.12745
0
#BPMCHANGE 110.5
#SCROLL 1.04072
0,
#BPMCHANGE 152
#SCROLL 1.01974
8010,
#BPMCHANGE 155
#SCROLL 1
111
#BPMCHANGE 143
#SCROLL 1.08392
0,
#BPMCHANGE 154
#SCROLL 1.00649
1010,
#BPMCHANGE 156
#SCROLL 0.99359
1110,
#GOGOSTART
#BPMCHANGE 155
#SCROLL 1
10111010,
1011,
10111010,
#BPMCHANGE 154
#SCROLL 1.00649
1010,
#BPMCHANGE 155
#SCROLL 1
20222020,
2020,
20221020,
10001011,
#MEASURE 2/4
#GOGOEND
1,
#MEASURE 4/4
#BPMCHANGE 154
#SCROLL 1.00649
1110,
#BPMCHANGE 155
#SCROLL 1
1110,
1210,
1210,
2020,
2220,
2020,
#MEASURE 3/4
#BPMCHANGE 156
#SCROLL 0.99359
222,
#BPMCHANGE 155
#SCROLL 1
202,
202,
102,
200200,
1,
111,
011,
1,
#MEASURE 2/4
,
#MEASURE 3/4
#GOGOSTART
#BPMCHANGE 165
#SCROLL 1
6,
#MEASURE 5/8
0000080000,
#MEASURE 3/4
6,
000800,
6,
#MEASURE 5/8
00080,
#MEASURE 3/4
#BPMCHANGE 166
#SCROLL 0.993976
300300,
300300,
#BPMCHANGE 165
#SCROLL 1
6,
#MEASURE 5/8
00080,
#MEASURE 3/4
6,
#BPMCHANGE 164
#SCROLL 1.0061
000800,
#BPMCHANGE 165
#SCROLL 1
100101,
#MEASURE 5/8
10010,
#MEASURE 3/4
100011,
100100,
200200,
#MEASURE 5/8
2,
#MEASURE 3/4
#BPMCHANGE 167
#SCROLL 0.988024
200200,
#BPMCHANGE 163
#SCROLL 1.01227
200222,
#BPMCHANGE 164
#SCROLL 1.0061
200200,
#MEASURE 5/8
#BPMCHANGE 165
#SCROLL 1
20020,
#MEASURE 3/4
400400,
400400,
100110,
#MEASURE 5/8
1000010,
#MEASURE 3/4
100101,
110,
100100,
#MEASURE 5/8
10010,
#MEASURE 3/4
101110,
101,
#GOGOEND
#BPMCHANGE 163
#SCROLL 1.01227
2,
#BPMCHANGE 167
#SCROLL 0.988024
2,
#GOGOSTART
#BPMCHANGE 165
#SCROLL 1
6,
00000000000
#GOGOEND
8,
#END
COURSE:Hard
LEVEL:4
BALLOON:18
SCOREINIT:
SCOREDIFF:
NOTESDESIGNER2:Colin
#START
#SCROLL 1.05505
3
#BPMCHANGE 119
#SCROLL 0.966387
0
#BPMCHANGE 113
#SCROLL 1.0177
3
#BPMCHANGE 121
#SCROLL 0.950413
0,
#BPMCHANGE 116
#SCROLL 0.991379
3
#BPMCHANGE 121
#SCROLL 0.950413
0
#BPMCHANGE 110
#SCROLL 1.04545
3
#BPMCHANGE 122
#SCROLL 0.942623
0,
#BPMCHANGE 117
#SCROLL 0.982906
30
#BPMCHANGE 110
#SCROLL 1.04545
3
#BPMCHANGE 107
#SCROLL 1.07477
4,
#BPMCHANGE 99
#SCROLL 1.16162
70
#BPMCHANGE 102
#SCROLL 1.12745
0
#BPMCHANGE 110.5
#SCROLL 1.04072
8,
#BPMCHANGE 152
#SCROLL 1.01974
1002002010001000,
#BPMCHANGE 155
#SCROLL 1
100020001002
#BPMCHANGE 143
#SCROLL 1.08392
0100,
#BPMCHANGE 154
#SCROLL 1.00649
1002002010002000,
#BPMCHANGE 156
#SCROLL 0.99359
1000200020202220,
#GOGOSTART
#BPMCHANGE 155
#SCROLL 1
11021120,
1002002022020000,
11021120,
#BPMCHANGE 154
#SCROLL 1.00649
2002002020100000,
#BPMCHANGE 155
#SCROLL 1
11021120,
2002002011020000,
11021120,
1002002010220000,
#MEASURE 2/4
#GOGOEND
,
#MEASURE 4/4
#BPMCHANGE 154
#SCROLL 1.00649
1221,
#BPMCHANGE 155
#SCROLL 1
1001001000500000,
00008002,
0020020020020020,
1212,
1225,
00080000,
#MEASURE 3/4
#BPMCHANGE 156
#SCROLL 0.99359
111,
#BPMCHANGE 155
#SCROLL 1
100100100010,
112,
200022,
202202,
508,
101200,
200110,
300300400030,
#MEASURE 2/4
03004000,
#MEASURE 3/4
#GOGOSTART
#BPMCHANGE 165
#SCROLL 1
6,
#MEASURE 5/8
000000000000000000000000000000000000000000000000000000000000000000000000000000000000080000000000000000000000000000000000,
#MEASURE 3/4
6,
008,
222201,
#MEASURE 5/8
20121,
#MEASURE 3/4
#BPMCHANGE 166
#SCROLL 0.993976
201201,
200010201110,
#BPMCHANGE 165
#SCROLL 1
200202,
#MEASURE 5/8
11120,
#MEASURE 3/4
102102,
#BPMCHANGE 164
#SCROLL 1.0061
121120,
#BPMCHANGE 165
#SCROLL 1
111202,
#MEASURE 5/8
20122,
#MEASURE 3/4
6,
008,
300300,
#MEASURE 5/8
600000000000000000000000000000000000000000000000000000000000000000000000000000000000080000000000000000000000000000000000,
#MEASURE 3/4
#BPMCHANGE 167
#SCROLL 0.988024
400400,
#BPMCHANGE 163
#SCROLL 1.01227
443020,
#BPMCHANGE 164
#SCROLL 1.0061
202101,
#MEASURE 5/8
#BPMCHANGE 165
#SCROLL 1
20120,
#MEASURE 3/4
401401,
401400,
200200,
#MEASURE 5/8
10210,
#MEASURE 3/4
201202,
112,
111101,
#MEASURE 5/8
20222,
#MEASURE 3/4
5,
008,
#GOGOEND
#BPMCHANGE 163
#SCROLL 1.01227
2,
#BPMCHANGE 167
#SCROLL 0.988024
2,
#GOGOSTART
#BPMCHANGE 165
#SCROLL 1
6,
00000000000
#GOGOEND
8,
#END
COURSE:Oni
LEVEL:8
SCOREINIT:
SCOREDIFF:
NOTESDESIGNER3:Colin
#START
#SCROLL 1.05505
3010
#BPMCHANGE 119
#SCROLL 0.966387
1020
#BPMCHANGE 113
#SCROLL 1.0177
1020
#BPMCHANGE 121
#SCROLL 0.950413
1012,
#BPMCHANGE 116
#SCROLL 0.991379
22
#BPMCHANGE 121
#SCROLL 0.950413
12
#BPMCHANGE 110
#SCROLL 1.04545
01
#BPMCHANGE 122
#SCROLL 0.942623
11,
#BPMCHANGE 117
#SCROLL 0.982906
0112
#BPMCHANGE 110
#SCROLL 1.04545
02
#BPMCHANGE 107
#SCROLL 1.07477
21,
#BPMCHANGE 99
#SCROLL 1.16162
222222111111
#BPMCHANGE 102
#SCROLL 1.12745
222111
#BPMCHANGE 110.5
#SCROLL 1.04072
100000,
#BPMCHANGE 152
#SCROLL 1.01974
1112002010002000,
#BPMCHANGE 155
#SCROLL 1
101112002002
#BPMCHANGE 143
#SCROLL 1.08392
0100,
#BPMCHANGE 154
#SCROLL 1.00649
1112002010002000,
#BPMCHANGE 156
#SCROLL 0.99359
1011120020202211,
#GOGOSTART
#BPMCHANGE 155
#SCROLL 1
2021021010102220,
1012012210120222,
1020112010102202,
#BPMCHANGE 154
#SCROLL 1.00649
1012012020102222,
#BPMCHANGE 155
#SCROLL 1
1011201210102022,
2012012011020222,
1011212011102120,
1112012210121110,
#MEASURE 2/4
#GOGOEND
20011010,
#MEASURE 4/4
#BPMCHANGE 154
#SCROLL 1.00649
1021002010210020,
#BPMCHANGE 155
#SCROLL 1
1021002010210020,
1021002010210020,
1021012011210120,
2021002010210020,
1021002010210020,
1021022010101020,
#MEASURE 3/4
#BPMCHANGE 156
#SCROLL 0.99359
221,
#BPMCHANGE 155
#SCROLL 1
333,
301010102022,
121121,
201010201022,
100210221111,
201020221210,
201120221122,
102101202210,
#MEASURE 2/4
01012000,
#MEASURE 3/4
#GOGOSTART
#BPMCHANGE 165
#SCROLL 1
302102102022,
#MEASURE 5/8
1021021011,
#MEASURE 3/4
202102102022,
101120102101,
102101202022,
#MEASURE 5/8
12212,
#MEASURE 3/4
#BPMCHANGE 166
#SCROLL 0.993976
300400300400,
300400301120,
#BPMCHANGE 165
#SCROLL 1
102102102022,
#MEASURE 5/8
1021021022,
#MEASURE 3/4
102102102022,
#BPMCHANGE 164
#SCROLL 1.0061
101110102102,
#BPMCHANGE 165
#SCROLL 1
102102102022,
#MEASURE 5/8
1020201120,
#MEASURE 3/4
102120220220,
102022202220,
102102102022,
#MEASURE 5/8
1021021022,
#MEASURE 3/4
#BPMCHANGE 167
#SCROLL 0.988024
102102102022,
#BPMCHANGE 163
#SCROLL 1.01227
101120102102,
#BPMCHANGE 164
#SCROLL 1.0061
102102102022,
#MEASURE 5/8
#BPMCHANGE 165
#SCROLL 1
12212,
#MEASURE 3/4
300400300400,
300400301122,
102102102022,
#MEASURE 5/8
1021021022,
#MEASURE 3/4
111202102022,
101110102102,
102102102011,
#MEASURE 5/8
2020221020,
#MEASURE 3/4
102220221120,
122222,
#GOGOEND
#BPMCHANGE 163
#SCROLL 1.01227
311121,
#BPMCHANGE 167
#SCROLL 0.988024
202112,
#GOGOSTART
#BPMCHANGE 165
#SCROLL 2
302120210210,
10202020202
#GOGOEND
#SCROLL 1
0,
#END