Files

797 lines
9.4 KiB
Plaintext

// PeepoDrumKit 2022/09/10
TITLE:Vektor
TITLEJA:ベクトル
SUBTITLE:--Shugo Tokumaru feat. Maywa Denki
SUBTITLEJA:トクマルシューゴ feat. 明和電機
PREIMAGE:toss.png
BPM:120
WAVE:Vektor.ogg
OFFSET:-0.031
DEMOSTART:193.531
MAKER:DragonRatTiger
LYRICS:Vektor.vtt
COURSE:Oni
LEVEL:8
BALLOON:72,14
SCOREINIT:
SCOREDIFF:
#START
,
,
2022000000000000,
2022000000000000,
2022000020020020,
2022000020020020,
2020202022020000,
2022020020020020,
2020202022020000,
2022020022222200,
1020202012010022,
1022020212212212,
1020202012010022,
1022020212212212,
#LYRIC Towatowatowa to meimetsu suruto
22202020,
#LYRIC Noranoranora to araware te
2222200020002000,
#LYRIC Towatowatowa to tsuzui teiku
22202020,
#LYRIC vektor vektor vektor vektor vektor
2022022022022020,
#LYRIC
1111,
1111,
1111,
1111,
#LYRIC Zenshin kamin toori sugo shite
1000200202020020,
1000200202020020,
1000200202020020,
1000200202020022,
#LYRIC zenmai mai te houri nage ruto
1020100212020020,
1020100212020022,
1020101202020020,
1020101202020000,
#SCROLL 0.9
#LYRIC Ei
302020
#SCROLL 0.8
#LYRIC Ei ei
302020,
#SCROLL 0.7
#LYRIC Ei eien
302020
#SCROLL 0.6
#LYRIC Ei eien to
302020,
#SCROLL 0.5
#LYRIC Furiko kazoe akiraka shite
1001,
10010010,
50008101,
1001000
#LYRIC memai gamabuta wo oou
0,
10010000,
10010101,
00500008,
#LYRIC
202020202020,
#SCROLL 1
200200
#LYRIC Kono sakini
0000000000,
200200
#LYRIC Kono sakini aza yakaga
0000000000,
200200
#LYRIC kobore ruto
0000000000,
200200
#LYRIC kobore ruto katei suru
0022222200,
#LYRIC
102100
#LYRIC Saimin ga
1022122122,
102100
#LYRIC Saimin gahodokenai
1022122122,
102100
#LYRIC nukiashito
1022122122,
102100
#LYRIC nukiashitosashiashito te
1022122122,
#GOGOSTART
1010201012010112,
2020102012020222,
1010101012010122,
1010101012020122,
#GOGOEND
#SCROLL 0.9
#LYRIC
0,
,
1001001000000000,
1001001000000000,
#SCROLL 0.8
#LYRIC Sonna fukaku moguru to
7,
,
,
0008,
#SCROLL 0.7
#LYRIC kiko enakunarukara
0,
0005,
#SCROLL 0.6
0,
,
#SCROLL 0.5
#LYRIC kizuku kotohanaito omotte ta
0800,
,
0500,
0008,
#SCROLL 1
#LYRIC
20000002,
2,
20000002,
20000002,
10101012,
10101012,
10101012,
10102222,
1022000020020020,
1022000020020020,
1022000020020020,
1022000020020020,
1020202022020222,
1020202022020222,
1010101012010122,
1010101012020122,
,
1111,
1111,
1020200202020020,
1020200202020020,
322200322200,
#MEASURE 5/4
302020200
#SCROLL 2
700000000000000
#LYRIC Nejit
800000,
#MEASURE 4/4
#GOGOSTART
#SCROLL 1
#LYRIC Nejitte
1010201012010112,
2020102012020222,
1010101012010122,
1010101012020122,
#MEASURE 6/4
#GOGOEND
#LYRIC
022202220222022212021110,
#MEASURE 4/4
#GOGOSTART
#LYRIC Kitai no hokosaki kawa reba
1221,
1010201012010010,
#LYRIC surusurutosuri nuke
2201102201101020,
2002001000000000,
#LYRIC Jikan no moyou gahajikete
1122,
1020102012010020,
#LYRIC surusuruto ton deku
1102201102201010,
2001002021021110,
#LYRIC
3333,
3333,
4444,
4444,
3333,
4444,
3344,
3344,
#GOGOEND
1122010201202102,
1,
#END
COURSE:Hard
LEVEL:7
BALLOON:64,10
SCOREINIT:
SCOREDIFF:
#START
,
,
2002000000000000,
2002000000000000,
2022000020020020,
2022000020020020,
2020202020020000,
2022000020020020,
2020202020020000,
2022000022222200,
1020202010010000,
1021000022022022,
1020202010010000,
1021000022022022,
#LYRIC Towatowatowa to meimetsu suruto
22202020,
#LYRIC Noranoranora to araware te
2222200020002000,
#LYRIC Towatowatowa to tsuzui teiku
22202020,
#LYRIC vektor vektor vektor vektor vektor
2022022022022000,
#LYRIC
1111,
1111,
1111,
1111,
#LYRIC Zenshin kamin toori sugo shite
1000200202020000,
1000200202020000,
1000200202020000,
1000200202020000,
#LYRIC zenmai mai te houri nage ruto
1000100212020000,
1010100212020000,
1000100212020000,
1010100212020000,
#SCROLL 0.9
#LYRIC Ei
302020
#SCROLL 0.8
#LYRIC Ei ei
302020,
#SCROLL 0.7
#LYRIC Ei eien
302020
#SCROLL 0.6
#LYRIC Ei eien to
302020,
#SCROLL 0.5
#LYRIC Furiko kazoe akiraka shite
1001,
10010010,
50008100,
1001000
#LYRIC memai gamabuta wo oou
0,
10010000,
10010101,
0500,
#LYRIC
8,
#SCROLL 1
200200
#LYRIC Kono sakini
0000000000,
200200
#LYRIC Kono sakini aza yakaga
0000000000,
200200
#LYRIC kobore ruto
0000000000,
200200
#LYRIC kobore ruto katei suru
0022222000,
#LYRIC
102100
#LYRIC Saimin ga
1022202220,
102100
#LYRIC Saimin gahodokenai
1022202220,
102100
#LYRIC nukiashito
1022202220,
102100
#LYRIC nukiashitosashiashito te
1022202220,
#GOGOSTART
1010201012010111,
1010201012010111,
1010101012010222,
1010101012010222,
#GOGOEND
#SCROLL 0.9
#LYRIC
0,
,
1001001000000000,
1001001000000000,
#SCROLL 0.8
#LYRIC Sonna fukaku moguru to
7,
,
,
0008,
#SCROLL 0.7
#LYRIC kiko enakunarukara
0,
0005,
#SCROLL 0.6
0,
,
#SCROLL 0.5
#LYRIC kizuku kotohanaito omotte ta
0800,
,
0500,
0008,
#SCROLL 1
#LYRIC
2,
2,
2,
2,
1111,
1111,
1111,
10102220,
1011000020002000,
1011000020002000,
1011000020002000,
1011000020002000,
1000200012010010,
1000200012010010,
1010101012010222,
1010101012010222,
,
1111,
1111,
1020200202020000,
1020200202020000,
3030,
#MEASURE 5/4
300
#SCROLL 2
70000
#LYRIC Nejit
80,
#MEASURE 4/4
#GOGOSTART
#SCROLL 1
#LYRIC Nejitte
1010201012010111,
1010201012010111,
1010101012010222,
1010101012010220,
#MEASURE 6/4
#GOGOEND
#LYRIC
022002200220022000000000,
#MEASURE 4/4
#GOGOSTART
#LYRIC Kitai no hokosaki kawa reba
1221,
1010101020020020,
#LYRIC surusurutosuri nuke
2201102201101020,
2001002000000000,
#LYRIC Jikan no moyou gahajikete
1122,
1020102010020000,
#LYRIC surusuruto ton deku
1102201102201010,
2002002000000000,
#LYRIC
3333,
3333,
4444,
4444,
3333,
4444,
3333,
4444,
#GOGOEND
2222000020002000,
2,
#END
COURSE:Normal
LEVEL:6
BALLOON:48,8
SCOREINIT:
SCOREDIFF:
#START
,
,
2002000000000000,
2002000000000000,
2002000020000000,
2002000020000000,
2000200020020000,
2002000020000000,
2000200020020000,
2002000020000000,
1000200010010000,
1001000020002000,
1000200010010000,
1001000020002000,
#LYRIC Towatowatowa to meimetsu suruto
2220,
#LYRIC Noranoranora to araware te
22202000,
#LYRIC Towatowatowa to tsuzui teiku
2220,
#LYRIC vektor vektor vektor vektor vektor
4444,
#LYRIC
1110,
1110,
1110,
1110,
#LYRIC Zenshin kamin toori sugo shite
1000000202020000,
1000200202020000,
1000000202020000,
1000200202020000,
#LYRIC zenmai mai te houri nage ruto
1000000102010000,
1000200102010000,
1000000102010000,
1000200102010000,
#SCROLL 0.9
#LYRIC Ei
30
#SCROLL 0.8
#LYRIC Ei ei
30,
#SCROLL 0.7
#LYRIC Ei eien
30
#SCROLL 0.6
#LYRIC Ei eien to
30,
#SCROLL 0.5
#LYRIC Furiko kazoe akiraka shite
1001,
10010010,
50000800,
1001000
#LYRIC memai gamabuta wo oou
0,
10010000,
10010010,
0500,
#LYRIC
8,
#SCROLL 1
200
#LYRIC Kono sakini
00000,
200
#LYRIC Kono sakini aza yakaga
00000,
200
#LYRIC kobore ruto
00000,
200
#LYRIC kobore ruto katei suru
02020,
#LYRIC
102
#LYRIC Saimin ga
01202,
102
#LYRIC Saimin gahodokenai
01202,
102
#LYRIC nukiashito
01202,
102
#LYRIC nukiashitosashiashito te
01202,
#GOGOSTART
10201120,
10201120,
10101122,
10101122,
#GOGOEND
#SCROLL 0.9
#LYRIC
0,
,
10010000,
10010000,
#SCROLL 0.8
#LYRIC Sonna fukaku moguru to
7,
,
,
0008,
#SCROLL 0.7
#LYRIC kiko enakunarukara
0,
0005,
#SCROLL 0.6
0,
,
#SCROLL 0.5
#LYRIC kizuku kotohanaito omotte ta
0800,
,
0500,
0008,
#SCROLL 1
#LYRIC
2,
2,
2,
2,
1010,
1010,
1010,
1022,
10001002,
10001002,
10001002,
10001002,
10201120,
10201120,
10201122,
10201122,
,
1010,
1010,
1220,
1220,
3030,
#MEASURE 5/4
300
#SCROLL 2
70000
#LYRIC Nejit
80,
#MEASURE 4/4
#GOGOSTART
#SCROLL 1
#LYRIC Nejitte
10201120,
10201120,
10201122,
10201122,
#MEASURE 6/4
#GOGOEND
#LYRIC
222200,
#MEASURE 4/4
#GOGOSTART
#LYRIC Kitai no hokosaki kawa reba
1220,
1120,
#LYRIC surusurutosuri nuke
2001002001000000,
10010000,
#LYRIC Jikan no moyou gahajikete
1122,
1222,
#LYRIC surusuruto ton deku
1002001002000000,
20020000,
#LYRIC
3333,
3333,
4444,
4444,
3333,
4444,
3333,
4444,
#GOGOEND
0022,
2,
#END
COURSE:Easy
LEVEL:4
BALLOON:10,38,6
SCOREINIT:
SCOREDIFF:
#START
,
,
2,
2,
2,
2,
2020,
2,
2020,
2,
1020,
1010,
1020,
1020,
#LYRIC Towatowatowa to meimetsu suruto
2220,
#LYRIC Noranoranora to araware te
2220,
#LYRIC Towatowatowa to tsuzui teiku
2220,
#LYRIC vektor vektor vektor vektor vektor
4444,
#LYRIC
1010,
1010,
1010,
1010,
#LYRIC Zenshin kamin toori sugo shite
1000000100000000,
1000000100000000,
1000000100000000,
1000000100000000,
#LYRIC zenmai mai te houri nage ruto
1000000200000000,
1000000200000000,
1000000200000000,
1000000200000000,
#SCROLL 0.9
#LYRIC Ei
90
#SCROLL 0.8
#LYRIC Ei ei
00,
#SCROLL 0.7
#LYRIC Ei eien
00
#SCROLL 0.6
#LYRIC Ei eien to
80,
#SCROLL 0.5
#LYRIC Furiko kazoe akiraka shite
1,
1001,
50000800,
1000000
#LYRIC memai gamabuta wo oou
0,
1,
1010,
0500,
#LYRIC
8,
#SCROLL 1
200
#LYRIC Kono sakini
00000,
200
#LYRIC Kono sakini aza yakaga
00000,
200
#LYRIC kobore ruto
00000,
200
#LYRIC kobore ruto katei suru
00000,
#LYRIC
100
#LYRIC Saimin ga
02020,
100
#LYRIC Saimin gahodokenai
02020,
100
#LYRIC nukiashito
02020,
100
#LYRIC nukiashitosashiashito te
02020,
#GOGOSTART
1110,
1110,
1212,
1212,
#GOGOEND
#SCROLL 0.9
#LYRIC
0,
,
1,
1,
#SCROLL 0.8
#LYRIC Sonna fukaku moguru to
7,
,
,
0008,
#SCROLL 0.7
#LYRIC kiko enakunarukara
0,
0005,
#SCROLL 0.6
0,
,
#SCROLL 0.5
#LYRIC kizuku kotohanaito omotte ta
0800,
,
0500,
0008,
#SCROLL 1
#LYRIC
2,
2,
2,
2,
1010,
1010,
1010,
1020,
1022,
1022,
1022,
1022,
1110,
1110,
1212,
1212,
,
1,
1,
1020,
1020,
3030,
#MEASURE 5/4
300
#SCROLL 2
70000
#LYRIC Nejit
80,
#MEASURE 4/4
#GOGOSTART
#SCROLL 1
#LYRIC Nejitte
1110,
1110,
1212,
1212,
#MEASURE 6/4
#GOGOEND
#LYRIC
202000,
#MEASURE 4/4
#GOGOSTART
#LYRIC Kitai no hokosaki kawa reba
1010,
1110,
#LYRIC surusurutosuri nuke
20020020,
20010000,
#LYRIC Jikan no moyou gahajikete
1010,
1111,
#LYRIC surusuruto ton deku
20020020,
2200,
#LYRIC
3030,
3030,
4040,
4040,
3333,
4444,
3333,
4444,
#GOGOEND
0,
2,
#END