Files
DynGMD-Charts/280bpm_newthing/280bpm_newthing.tja
T
2026-03-22 14:57:28 -04:00

76 lines
1.1 KiB
Plaintext

// PeepoDrumKit 2025/11/19
TITLE:280bpm_newthing
SUBTITLE:TFD500
BPM:280
WAVE:280bpm_newthing.ogg
OFFSET:-0.051225
DEMOSTART:0.051225
MAKER:よるん
SEVOL:50
COURSE:Oni
LEVEL:8
#START
#MEASURE 8/4
30
#SCROLL 0.5
12012212122022,
1021010212122120,
1002001012020210,
2112021021120120,
#SCROLL 1
300
#SCROLL 0.5
2001122012220,
2001001221022120,
2011012021020120,
1122012211120211,
1122000022010210,
1122021122120222,
1201021221020120,
100020001000100020001000200200100100200200100200,
1122000022010210,
1122021122120222,
1201021221020120,
100020001000100020001000200200100100200200100200,
#END
COURSE:Edit
LEVEL:10
#START
30120122,
1020222010002020,
10020021,
1020102220102000,
10120010,
12120210,
21120210,
1020102000221000,
3000002000001110,
2020001120202000,
2000001010201120,
2010102022102000,
11220120,
22010210,
1010202000222020,
1010202020221110,
11220000,
22010210,
1010202000222020,
1120202000221020,
1010102000221010,
21010120,
112010102010,
22121122,
11220000,
22010210,
1010202000222020,
1120202000221020,
1010102000221010,
21010120,
112010102010,
22121122,
#END