Files
DynGMD-Charts/Freeze Game/Freeze Game.tja
T
2026-06-30 21:27:22 -04:00

555 lines
5.3 KiB
Plaintext

// PeepoDrumKit 2025/11/19
TITLE:Freeze Game
SUBTITLE:Yo Gabba Gabba!
BPM:128
WAVE:05. Freeze Game.ogg
PREIMAGE:The Best of Yo Gabba Gabba!.jpeg
OFFSET:-1.13277
DEMOSTART:1.13277
MAKER:よるん
COURSE:Oni
LEVEL:8
#START
3011202221102020,
3022201221102020,
3021201221102020,
#SCROLL 1.1
3
#SCROLL 1.2
2
#SCROLL 1.3
3
#SCROLL 1.4
2,
#GOGOSTART
#SCROLL 1.5
3010201101102022,
1012022022101022,
1012022022101222,
#GOGOEND
1201202212012020,
#GOGOSTART
3011202011102020,
1011202011102022,
1011202020111020,
2220201110112210,
#MEASURE 1/4
#GOGOEND
#SCROLL 1
3,
,
,
,
#MEASURE 4/4
1111202211112022,
11112222
#SCROLL 1.1
40
#SCROLL 1.2
10
#SCROLL 1.3
40
#SCROLL 1.4
22,
#GOGOSTART
#SCROLL 1.5
3010201101102022,
1012022022101022,
1012022022101222,
#GOGOEND
1201202212012020,
#GOGOSTART
3011202011102020,
1011202011102022,
1011202020111020,
2220201110112210,
#MEASURE 1/4
#GOGOEND
#SCROLL 1
3,
,
,
,
#MEASURE 4/4
1111202211112022,
11112222
#SCROLL 1.1
40
#SCROLL 1.2
10
#SCROLL 1.3
40
#SCROLL 1.4
22,
#GOGOSTART
#SCROLL 1.5
3010201101102022,
1012022022101022,
1012022022101222,
#GOGOEND
1201202212012020,
#GOGOSTART
3011202011102020,
1011202011102022,
1011202020111020,
2220201110112210,
#MEASURE 1/4
#GOGOEND
#SCROLL 1
3,
,
,
,
#MEASURE 4/4
1111202211112022,
11112222
#SCROLL 1.1
40
#SCROLL 1.2
10
#SCROLL 1.3
40
#SCROLL 1.4
22,
#GOGOSTART
#SCROLL 1.5
3010201101102022,
1012022022101022,
1012022022101222,
#GOGOEND
1201202212012020,
#GOGOSTART
3011202011102020,
1011202011102022,
1011202020111020,
2220201110112210,
#MEASURE 1/4
#GOGOEND
#SCROLL 1
3,
,
,
,
#MEASURE 4/4
1111202211112022,
11112222
#SCROLL 1.1
40
#SCROLL 1.2
10
#SCROLL 1.3
40
#SCROLL 1.4
22,
#GOGOSTART
#SCROLL 1.5
3010201101102022,
1012022022101022,
1012022022101222,
#GOGOEND
1201202212012020,
#GOGOSTART
3011202011102020,
1011202011102022,
1011202020111020,
2220201110112210,
#GOGOEND
#SCROLL 1
1100
#SCROLL 1.5
400000
#SCROLL 1
220020,
1100
#SCROLL 1.5
400000
#SCROLL 1
220020,
1100
#SCROLL 1.5
400000
#SCROLL 1
220020,
11000000
#SCROLL 2
40000000,
#END
COURSE:Hard
LEVEL:6
#START
3022202011102020,
3022202011102020,
3022202011102020,
32
#SCROLL 1.1
32,
#GOGOSTART
#SCROLL 1.2
3010201011102020,
1010201110102020,
1010201011102020,
#GOGOEND
1010201110102020,
#GOGOSTART
1010201002002020,
1010200100102020,
1010201002002020,
1010200100102020,
#MEASURE 1/4
#GOGOEND
#SCROLL 1
3,
,
,
,
#MEASURE 4/4
1110202011102020,
111020204000
#SCROLL 1.1
4000,
#GOGOSTART
#SCROLL 1.2
3010201011102020,
1010201110102020,
1010201011102020,
#GOGOEND
1010201110102020,
#GOGOSTART
1010201002002020,
1010200100102020,
1010201002002020,
1010200100102020,
#MEASURE 1/4
#GOGOEND
#SCROLL 1
3,
,
,
,
#MEASURE 4/4
1110202011102020,
111020204000
#SCROLL 1.1
4000,
#GOGOSTART
#SCROLL 1.2
3010201011102020,
1010201110102020,
1010201011102020,
#GOGOEND
1010201110102020,
#GOGOSTART
1010201002002020,
1010200100102020,
1010201002002020,
1010200100102020,
#MEASURE 1/4
#GOGOEND
#SCROLL 1
3,
,
,
,
#MEASURE 4/4
1110202011102020,
111020204000
#SCROLL 1.1
4000,
#GOGOSTART
#SCROLL 1.2
3010201011102020,
1010201110102020,
1010201011102020,
#GOGOEND
1010201110102020,
#GOGOSTART
1010201002002020,
1010200100102020,
1010201002002020,
1010200100102020,
#MEASURE 1/4
#GOGOEND
#SCROLL 1
3,
,
,
,
#MEASURE 4/4
1110202011102020,
111020204000
#SCROLL 1.1
4000,
#GOGOSTART
#SCROLL 1.2
3010201011102020,
1010201110102020,
1010201011102020,
#GOGOEND
1010201110102020,
#GOGOSTART
1010201002002020,
1010200100102020,
1010201002002020,
1010200100102020,
#GOGOEND
#SCROLL 1
30
#SCROLL 1.2
400
#SCROLL 1
402,
10
#SCROLL 1.2
400
#SCROLL 1
402,
10
#SCROLL 1.2
400
#SCROLL 1
402,
1
#SCROLL 1.5
4,
#END
COURSE:Normal
LEVEL:5
#START
3222,
3222,
3222,
33,
#GOGOSTART
#SCROLL 1.1
30200120,
11200222,
11020222,
#GOGOEND
1010002001002020,
#GOGOSTART
31221020,
11221202,
11221020,
11221022,
#MEASURE 1/4
#GOGOEND
#SCROLL 1
3,
,
,
,
#MEASURE 4/4
1212,
1222,
#GOGOSTART
#SCROLL 1.1
30200120,
11200222,
11020222,
#GOGOEND
1010002001002020,
#GOGOSTART
31221020,
11221202,
11221020,
11221022,
#MEASURE 1/4
#GOGOEND
#SCROLL 1
3,
,
,
,
#MEASURE 4/4
1212,
1222,
#GOGOSTART
#SCROLL 1.1
30200120,
11200222,
11020222,
#GOGOEND
1010002001002020,
#GOGOSTART
31221020,
11221202,
11221020,
11221022,
#MEASURE 1/4
#GOGOEND
#SCROLL 1
3,
,
,
,
#MEASURE 4/4
1212,
1222,
#GOGOSTART
#SCROLL 1.1
30200120,
11200222,
11020222,
#GOGOEND
1010002001002020,
#GOGOSTART
31221020,
11221202,
11221020,
11221022,
#MEASURE 1/4
#GOGOEND
#SCROLL 1
3,
,
,
,
#MEASURE 4/4
1212,
1222,
#GOGOSTART
#SCROLL 1.1
30200120,
11200222,
11020222,
#GOGOEND
1010002001002020,
#GOGOSTART
31221020,
11221202,
11221020,
11221022,
#GOGOEND
#SCROLL 1
30
#SCROLL 1.1
400
#SCROLL 1
400,
10
#SCROLL 1.1
400
#SCROLL 1
400,
10
#SCROLL 1.1
400
#SCROLL 1
400,
1
#SCROLL 1.2
4,
#END
COURSE:Easy
LEVEL:4
#START
32,
32,
32,
33,
#GOGOSTART
3212,
10020210,
1212,
#GOGOEND
3434,
#GOGOSTART
3212,
10210120,
1202,
1212,
#MEASURE 1/4
#GOGOEND
3,
,
,
,
#MEASURE 4/4
1212,
1212,
#GOGOSTART
3212,
10020210,
1212,
#GOGOEND
3434,
#GOGOSTART
3212,
10210120,
1202,
1212,
#MEASURE 1/4
#GOGOEND
3,
,
,
,
#MEASURE 4/4
1212,
1212,
#GOGOSTART
3212,
10020210,
1212,
#GOGOEND
3434,
#GOGOSTART
3212,
10210120,
1202,
1212,
#MEASURE 1/4
#GOGOEND
3,
,
,
,
#MEASURE 4/4
1212,
1212,
#GOGOSTART
3212,
10020210,
1212,
#GOGOEND
3434,
#GOGOSTART
3212,
10210120,
1202,
1212,
#MEASURE 1/4
#GOGOEND
3,
,
,
,
#MEASURE 4/4
1212,
1212,
#GOGOSTART
3212,
10020210,
1212,
#GOGOEND
3434,
#GOGOSTART
3212,
10210120,
1202,
1212,
#GOGOEND
30400400,
00400400,
00400400,
34,
#END