Files
Yonokid b37e548c81 Add thonk's contributions
New Songs:
Ashura-chan
Bansanka
CITRUS
Feel Special
Homenobi
I LOVE
Ichizu
Iroha Step
Kassai
Koigeba
Nani Yatte mo Umaku Ikanai
Nenenenenenene! Daibakusou
Overd
Plastic Love
Practice Love
Smile & Go!!
The Distance of Love
The Power Of Love
Timing
1 2 3 (2019)
ALIVE
Bling-Bang-Bang-Born
Doraemon
Gotoubun no Kimochi
Here Comes Char
Moonlight Densetsu -AC3 Version-
Moonlight Densetsu -Anime Matsuri Version-
Shishunki o Koroshita Shounen no Tsubasa
Zankyou Sanka
Lavie
Villain
HaneMari Taisou
Ore Koso Only One
Akiba 20XX
Bakuretsu Thaumazein (Prod. Chibanyan)
Crush (Prod SHOW)
good night baby (feat. Moe Shop)
IAM (feat. Shogo, Tsubasa)
Lassen Gorelai
Caprice No24
Kawachi Ondo Fushi-zukushi
Amefuri no Rondo
ESCAPE FROM CRISIS
Genesis Ray
GOING TO LUNATEA
Incompatible Thoughts
Kirby Star Allies Medley
Sonic the Hedgehog Medley
Thank You!
The Legend of Zelda Main Theme
We are PAC-MAN!
Aosagi no Hi
Little White Witch
Megamina Sekai III
Otomushi o Hibikasero
POLARiSNAUT
2024-08-08 19:48:37 -04:00

727 lines
6.8 KiB
Plaintext

//TJADB Project
TITLE:Caprice No.24
TITLEJA:鬼走曲第24番
SUBTITLE:--
SUBTITLEJA:
BPM:140
WAVE:Caprice No24.ogg
OFFSET:-1.126
DEMOSTART:1.126
COURSE:Oni
LEVEL:10
BALLOON:4,4,4,4,4,6,6,16
SCOREINIT:410,1060
SCOREDIFF:93
#START
1212,
1000200010012222,
1021122120122112,
1021122120212000, //4
1021122120122112,
1021122120122112,
1021122120212121,
2021121210202000, //8
#BPMCHANGE 170
1001102010201020,
111222111222,
111222101200,
111212111212,
100100100100200200200200100000002020200000000000, //13
100020002000100020002000100010001000100100200200,
100020001000200010002000100100200200100200200200,
100010002000100010002000100100200200100000200200,
122122101200, //17
#BPMCHANGE 320
#GOGOSTART
12002020,
1020102220101020,
1020101110102020,
1020102220101020,
1020101110004000, //22
1020102220101020,
1020101110102020,
1020102220101020,
1020101110004000, //26
2010201120201020,
1020102210102010,
2010201120201020,
1020102210102010, //30
1010202110102020,
1010202110102020,
1010201120201020,
12123000, //34
#GOGOEND
#BPMCHANGE 170
0,
0, //36
1102,
1120,
1102,
100000100000200000100111, //40
11200020,
1120,
112200000200,
100100200122, //44
1202,
10221122,
100000000000200000200000100020002000100200200100,
10200022, //48
1202,
100000000000700000000080000200200200100100100200,
#BPMCHANGE 169.91
200
#BPMCHANGE 168.14
100
#BPMCHANGE 159.13
100
#BPMCHANGE 141.17
121,
#BPMCHANGE 126
2000001120000000, //52
#BPMCHANGE 260
11221122,
11221212,
11221122,
11212010, //56
11221122,
11221212,
111222111222,
1000121010102000, //60
11221122,
1021102010102000,
11221122,
1021102010102010, //64
200100200000101010202020,
2010200000112211,
20221112,
11221211, //68
1110202000201010,
2220101000201010,
1110202000201010,
200200200000100000100000202020200000200000100000, //72
100010002000700000000000000000080000200020002000,
100111222100,
100010002000700000000000000000080000300000000000,
101010200100101010200000, //76
100010002000700000000000000000080000200020002000,
101010200200101010200000,
100010002000700000000000000000080000200020002000,
101010200100202020100000, //80
112700000800,
221700000800,
111200222100,
100010001000200100200000200000100000200000000000, //84
#BPMCHANGE 335
#GOGOSTART
20201102,
10221112,
7,
0008, //88
12110112,
11202122,
12110112,
10212012, //92
12110112,
1010202011102020,
12110112,
10212012, //96
1000101000222020,
11221120,
1000101000111010,
22112210, //100
10110122,
1110202010102000,
1110102011102020,
1010111010111020, //104
1110101022202020,
11212212,
1001102010102010,
11212212, //108
1110202011102020,
1011101020102020,
1110202011102020,
11, //112
12101210,
12121212,
1001100110011001,
1001101110111010, //116
#GOGOEND
40001121,
20002212,
11,
4, //120
0,
0,
0, //123
#END
COURSE:Hard
LEVEL:8
BALLOON:8,6,12
SCOREINIT:470,1630
SCOREDIFF:113
#START
1212,
1000200010002220,
2001101010022020,
2001101010222000,
2001111010022220,
2001111010022220,
2001111010022220,
2001111010202000, //8
#BPMCHANGE 170
1001101010201000,
111100111100,
111100101100,
222200222200,
200200200000200200200000200000002000200000000000,
500000000000000008000000100010001000100000000000,
500000000000000008000000200020002000200000000000,
100010001000100000000000100100100100100000000000,
202200201100, //17
#BPMCHANGE 320
#GOGOSTART
1022,
10101110,
10101110,
10101110,
1140,
11101110,
11101110,
11101110,
1140, //26
22201010,
22201000,
22201010,
22201000,
22202220,
11101110,
11111010,
11113000, //34
#GOGOEND
#BPMCHANGE 170
0,
0,
1102,
1120,
1102,
1121,
11200020,
1120,
111100000200,
100100200222, //44
2202,
10221111,
100000200200101010100000,
10200022,
1202,
10700008,
#BPMCHANGE 169.91
200
#BPMCHANGE 168.14
100
#BPMCHANGE 159.13
100
#BPMCHANGE 141.17
111,
#BPMCHANGE 126
2000002220000000, //52
#BPMCHANGE 260
10221020,
10221010,
10221020,
10212010,
10221020,
10221010,
111100111100,
10101120, //60
10221020,
10121020,
10221020,
10121020,
11100000,
1011100000000000,
30114022,
3, //68
10220210,
10110000,
10220210,
10220000,
10210120,
11201120,
10210120,
10121210, //76
10210120,
11201120,
10210120,
10221120,
500000000000000000000000000000000008000000000000,
7008,
10221020,
11202010, //84
#BPMCHANGE 335
#GOGOSTART
20201101,
10201110,
7,
0008,
10110110,
11202020,
10110110,
10212020, //92
10110110,
11201010,
10110110,
10212010,
10110220,
11201020,
10110110,
22101010, //100
10110110,
1212,
11101110,
10101110,
10111110,
20222220,
10111020,
11101110, //108
10201022,
10102022,
10201022,
11,
11101110,
11101110,
11111110,
11111111, //116
#GOGOEND
40001111,
10002222,
21,
4,
0,
0,
0, //123
#END
COURSE:Normal
LEVEL:7
BALLOON:5,4,4,8
SCOREINIT:590,2670
SCOREDIFF:158
#START
1212,
1210,
2121,
2120,
20111000,
20111000,
20111022,
20101120, //8
#BPMCHANGE 170
0122,
1212,
1210,
2121,
2120,
500000000000000008000000100000000000100000000000,
500000000000000008000000200000000000200000000000,
10101110,
2221, //17
#BPMCHANGE 320
#GOGOSTART
0,
1111,
1130,
1111,
1140,
1111,
1130,
1111,
1140, //26
2211,
2210,
2211,
2210,
2222,
1111,
2222,
1130, //34
#GOGOEND
#BPMCHANGE 170
0,
0,
1002,
1120,
1002,
1120,
1202,
1120,
1102,
1122, //44
1202,
10201110,
10201011,
10200022,
1202,
10700008,
#BPMCHANGE 169.91
2
#BPMCHANGE 168.14
1
#BPMCHANGE 159.13
1
#BPMCHANGE 141.17
1,
#BPMCHANGE 126
22, //52
#BPMCHANGE 260
1212,
11,
1212,
1,
1212,
11,
1212,
1, //60
1222,
11,
1222,
12,
500000000000000000000008000000000000000000000000,
78,
34,
3, //68
10110000,
20220000,
10110000,
20220000,
10110000,
1120,
10110000,
1120, //76
10110000,
1122,
10110000,
2211,
500000000000000000000000000000000008000000000000,
7008,
1212,
1120, //84
#BPMCHANGE 335
#GOGOSTART
2210,
1212,
7,
0008,
10110000,
1111,
10110000,
2222, //92
10110000,
1111,
10110000,
2222,
1101,
1210,
1102,
1210, //100
1210,
2120,
12,
1111,
1110,
2222,
2220,
1212, //108
2,
1,
21,
11,
2110,
2111,
2111,
1121, //116
#GOGOEND
4012,
1021,
21,
4,
0,
0,
0, //123
#END
COURSE:Easy
LEVEL:5
BALLOON:4,2,3,6,13
SCOREINIT:560,4560
SCOREDIFF:163
#START
11,
11,
22,
22,
1110,
2220,
34,
1112, //8
#BPMCHANGE 170
0,
1210,
1210,
2120,
2120,
03,
04,
11,
2222, //17
#BPMCHANGE 320
#GOGOSTART
0,
1,
1,
1,
22,
1,
1,
1,
22, //26
11,
2,
11,
2,
22,
11,
22,
13, //34
#GOGOEND
#BPMCHANGE 170
0,
0,
1002,
1,
1002,
1,
1202,
1,
1102,
1, //44
1202,
11,
12,
11,
1202,
10700008,
#BPMCHANGE 169.91
2
#BPMCHANGE 168.14
0
#BPMCHANGE 159.13
1
#BPMCHANGE 141.17
0,
#BPMCHANGE 126
22, //52
#BPMCHANGE 260
11,
11,
11,
1,
22,
22,
22,
2, //60
1111,
1,
2222,
2,
500000000000000000000008000000000000000000000000,
78,
34,
3, //68
1100,
2200,
1100,
2200,
1100,
1110,
1100,
1110, //76
1100,
2220,
1100,
2220,
500000000000000000000000000000000008000000000000,
7008,
11,
1120, //84
#BPMCHANGE 335
#GOGOSTART
2,
11,
7,
0008,
1,
11,
1,
22, //92
1,
11,
1,
22,
1,
3,
1,
4, //100
1,
21,
12,
1,
11,
22,
11,
11, //108
2,
1,
21,
11,
27,
0,
0,
000000000000000000000000000000000000080000000000, //116
#GOGOEND
4,
1,
21,
4,
0,
0,
0, //123
#END