Files
Thonker2 00ad2ab8c4 Quick update to follow up the pending PR + a few Dan Dojo 2026 checkups
06 Classical
Minuet (Fixed Easy 17,25, Balloon Length on Normal)

09 Namco Original
Taberuna 2000 (Fixed Balloon Count (Easy), BPM/HS (All))
Yami no Mahou Shoujo (Updated the Balloon Area (Oni))
2026-06-06 15:45:17 +08:00

359 lines
4.7 KiB
Plaintext

//TJADB Project
TITLE:Minuet
TITLEJA:メヌエット
TITLEZH:小步舞曲
TITLEKO:미뉴에트
SUBTITLE:--
SUBTITLEJA:
SUBTITLEZH:
SUBTITLEKO:
BPM:130
WAVE:Minuet.ogg
OFFSET:-2.015
DEMOSTART:24.160
//SONG_ID:jazmen
//Shinuchi: 8470/5720/2450/1870
COURSE:Oni
LEVEL:9
BALLOON:
SCOREINIT:620,1890
SCOREDIFF:168
#START
#GOGOSTART
100000000100200100000100101020101020100100200100,
0101210122212210,
0012110010012001,
1022122102211221,
100000000100200100000100101020101020100100200100,
000100000100200100000100500000000008000000100000,
000100221111100222222100,
0004, //8
#GOGOEND
1001120112011000,
1001120112011000,
1001120112011000,
1021022112212022,
1001120112011001,
0001120112011010,
100000000100100200000100200020001000100000200200,
0101010101010120,
1001120102011010,
1001120102011000,
3020002000200021,
02020230,
1001120112011001,
0001120112011010,
100000000100100200000100200020001000100000200200,
0101010101010120, //24
1001120102011021,
1001120102011010,
1001120102011021,
1001122202020122,
#MEASURE 3/4
100000022200000200,
202220200000,
102221102020,
112020103000,
100000022200000200,
202220104000,
201210201210,
211211211211,
#MEASURE 4/4
200100100200100010002000100000101010200200100200, //37
#GOGOSTART
1120120120112121,
0120120120112210,
0010210110102022,
0110120201121122,
1120120120112121,
0120120120112210,
0010210110102022,
0111222102222112,
1120120120112121,
0120120120112210,
0010210110102022,
0112011202111212,
1120120120112121,
0120120120211110,
000100221111100222222100,
000100000100100100000100102020202020200000300000,
#GOGOEND
0,
0,
0,
0, //57
#END
COURSE:Hard
LEVEL:8
BALLOON:
SCOREINIT:660,2490
SCOREDIFF:188
#START
#GOGOSTART
1001210011101021,
0101210022202210,
0012110010012000,
1022100201101110,
1001210011101021,
000100000100200100000000500000000008000000100000,
0010222010222010,
0004, //8
#GOGOEND
1001020110001000,
1001020110001000,
1001020110001000,
1001020102202022,
1001020110001001,
0001020110001000,
100000000100000200000000200020002000200000200200,
0101010101010120,
1001020102011000,
1001020102011000,
32020202,
02020230,
1001020110001001,
0001020110001000,
100000000100000200000000200020002000200000200200,
0101010101010120, //24
1001020102011000,
1001020102011000,
1001020102011000,
1001100202020000,
#MEASURE 3/4
12,
202220200000,
102220102020,
102220102000,
12,
202220102000,
211211,
111200111200,
#MEASURE 4/4
1111200020221110, //37
#GOGOSTART
1110110110112001,
0110110110112010,
0010110110112000,
0010210101103000,
1110110110112001,
0110110110112010,
0010210110102000,
0111200101112000,
1110110110112001,
0110110110112010,
0010110110102020,
0111011101112000,
1110110110112001,
0110110110211010,
0010222010222010,
0101110112222030,
#GOGOEND
0,
0,
0,
0, //57
#END
COURSE:Normal
LEVEL:7
BALLOON:10
SCOREINIT:1210,6210
SCOREDIFF:500
#START
#GOGOSTART
1000100010000001,
00101003,
0012,
1000100300000000,
1000100010000001,
00102003,
00003003,
0004, //8
#GOGOEND
0000000011001100,
0000000022002200,
0000000011001100,
1003000000000000,
1001000010000001,
0001000010000000,
1000000020000003,
0,
1001000100000000,
1001000100000000,
3202,
0203,
1001000010000001,
0001000010000000,
1000000020000003,
0, //24
1001000100000000,
1001000100000000,
1001000100000000,
1000100200000000,
#MEASURE 3/4
32,
22,
110220,
110100,
12,
200110,
110110,
1212,
#MEASURE 4/4
700000000000000000000000000000000008000000000000, //37
#GOGOSTART
1110000020000001,
0110000020000010,
01102000,
01102000,
1110000020000001,
0110000020000010,
01102000,
0010100300000000,
1110000020000001,
0110000020000010,
01102000,
01102000,
1110000020000001,
0110000020000010,
00201001,
00201003,
#GOGOEND
0,
0,
0,
0, //57
#END
COURSE:Easy
LEVEL:4
BALLOON:
SCOREINIT:910,9800
SCOREDIFF:660
#START
#GOGOSTART
3000000000000003,
00000003,
0012,
1,
3000000000000003,
00000003,
00003003,
0004, //8
#GOGOEND
0011,
0022,
0011,
3,
1000000020000001,
02,
1000000010000003,
0,
1000000100000000,
1000000100000000,
3,
0,
1000000020000001,
02,
1000000020000003,
0, //24
1000000100000000,
1000000100000000,
1000000100000000,
1000000100000000,
#MEASURE 3/4
3,
0,
11,
24,
1,
000110,
22,
22,
#MEASURE 4/4
500000000000000000000000000008000000000000000000, //37
#GOGOSTART
1000100010000001,
00101001,
0202,
0201,
1000100010000001,
00101001,
0202,
0201,
1000100010000001,
00101001,
0202,
0201,
1000100010000001,
00101001,
00001001,
00001003,
#GOGOEND
0,
0,
0,
0, //57
#END