464 lines
5.7 KiB
Plaintext
464 lines
5.7 KiB
Plaintext
//TJADB Project
|
|
TITLE:Triumphal March -New Chart-
|
|
TITLEJA:歌劇「アイーダ」より凱旋行進曲
|
|
SUBTITLE:--Giuseppe Verdi/Aida
|
|
SUBTITLEJA:新譜面 ヴェルディ
|
|
BPM:100
|
|
WAVE:Triumphal March.ogg
|
|
OFFSET:-0.328
|
|
DEMOSTART:0.328
|
|
|
|
COURSE:Oni
|
|
LEVEL:8
|
|
BALLOON:16,16,16
|
|
SCOREINIT:520
|
|
SCOREDIFF:128
|
|
|
|
#START
|
|
100011101010100000100000,
|
|
100011101010100000400000,
|
|
100011101010100010102020,
|
|
100011101010100000300000,
|
|
|
|
100011101010100000100000,
|
|
100022202020200000400000,
|
|
101110201010102220201020,
|
|
111010222020112010221020,
|
|
#BPMCHANGE 99
|
|
100112300300, //9
|
|
|
|
#BPMCHANGE 140
|
|
1110111010102110,
|
|
1110201011102010,
|
|
1110111010102110,
|
|
1110201011102010,
|
|
|
|
1010202220201020,
|
|
1001101011212010,
|
|
1002202011211001,
|
|
1010201011112001, //17
|
|
|
|
1010201011222001,
|
|
1010201011112001,
|
|
1010201011211001,
|
|
#GOGOSTART
|
|
1010202011112002,
|
|
|
|
100000000100100000000200500000000000000008000000,
|
|
100000000100100000000100200000000000100010002000,
|
|
100000000000600000000000000008000000400000000000,
|
|
3344,
|
|
#GOGOEND
|
|
0, //26
|
|
|
|
#BPMCHANGE 150
|
|
300111100100,
|
|
300111100200,
|
|
300112200200,
|
|
300222200100,
|
|
|
|
300111211101,
|
|
300111211100,
|
|
300211211211,
|
|
211211111111, //34
|
|
|
|
300111100100,
|
|
300111100200,
|
|
300112200200,
|
|
300222200100,
|
|
|
|
400222122200,
|
|
400222122111,
|
|
600000000000000000000000000000000000000000000008,
|
|
0, //42
|
|
|
|
300111100100,
|
|
300111100200,
|
|
300111111100,
|
|
300111100000,
|
|
|
|
400222200200,
|
|
400222200100,
|
|
400222222200,
|
|
400222300400, //50
|
|
|
|
#GOGOSTART
|
|
100010101010100011101020,
|
|
100010102020100011101020,
|
|
111211211211,
|
|
100011101010200022201020,
|
|
100011101010201010201010,
|
|
#BPMCHANGE 151
|
|
100022202020102020101020, //56
|
|
|
|
#BPMCHANGE 140
|
|
3121,
|
|
70000008,
|
|
10112110,
|
|
70000008,
|
|
10122110,
|
|
70000008, //62
|
|
|
|
111211211211,
|
|
100020002000600000000000000008000000100020002000,
|
|
100111211211,
|
|
100020002000600000000000000008000000100020002000,
|
|
|
|
100111211211,
|
|
211211211222,
|
|
111222122122,
|
|
301212301212, //70
|
|
|
|
100011101020100011101020,
|
|
100022201020100022201020,
|
|
500000000000000000000000000000000000000000000008,
|
|
0333,
|
|
|
|
3040,
|
|
600000000000000000000000000000000000000000000008,
|
|
#GOGOEND
|
|
0,
|
|
0, //78
|
|
#END
|
|
|
|
|
|
COURSE:Hard
|
|
LEVEL:4
|
|
BALLOON:12,12,12
|
|
SCOREINIT:560
|
|
SCOREDIFF:138
|
|
|
|
#START
|
|
100111100100,
|
|
100111100400,
|
|
100111100200,
|
|
100111100300,
|
|
|
|
100111100100,
|
|
100222200400,
|
|
101200102200,
|
|
101202101202,
|
|
#BPMCHANGE 99
|
|
100112300300, //9
|
|
|
|
#BPMCHANGE 140
|
|
10101120,
|
|
11211120,
|
|
10101120,
|
|
11211120,
|
|
|
|
10212012,
|
|
1001100010102010,
|
|
1001100010201001,
|
|
100000000000500000000000000000000008000000000100, //17
|
|
|
|
100000000000500000000000000000000008000000000100,
|
|
100000000000500000000000000000000008000000000100,
|
|
100000000000500000000000000000000008000000000100,
|
|
#GOGOSTART
|
|
100000000000500000000000000000000008000000000100,
|
|
|
|
100000000100100000000100500000000000000008000000,
|
|
1001100110002000,
|
|
100000000000600000000000000008000000400000000000,
|
|
3344,
|
|
#GOGOEND
|
|
0, //26
|
|
|
|
#BPMCHANGE 150
|
|
300101100100,
|
|
300101100100,
|
|
300202200200,
|
|
300202200200,
|
|
|
|
3121,
|
|
300101100100,
|
|
3222,
|
|
2211, //34
|
|
|
|
300101100100,
|
|
300101100100,
|
|
300202200200,
|
|
300202200200,
|
|
|
|
400202100200,
|
|
400202200100,
|
|
600000000000000000000000000000000000000000000008,
|
|
0, //42
|
|
|
|
300101100100,
|
|
300101100200,
|
|
300101100100,
|
|
300101100000,
|
|
|
|
400202200200,
|
|
400202200100,
|
|
400202200200,
|
|
4434, //50
|
|
|
|
#GOGOSTART
|
|
100111100100,
|
|
101100100200,
|
|
1111,
|
|
100111100200,
|
|
100111100200,
|
|
#BPMCHANGE 151
|
|
100222200200, //56
|
|
|
|
#BPMCHANGE 140
|
|
3121,
|
|
70000008,
|
|
1121,
|
|
70000008,
|
|
1121,
|
|
70000008, //62
|
|
|
|
1344,
|
|
300000000000600000000000000008000000100000001000,
|
|
1344,
|
|
300000000000600000000000000008000000100000001000,
|
|
|
|
1112,
|
|
3344,
|
|
3444,
|
|
3030, //70
|
|
|
|
101111101111,
|
|
101111101111,
|
|
500000000000000000000000000000000000000000000008,
|
|
0333,
|
|
|
|
3040,
|
|
600000000000000000000000000000000000000000000008,
|
|
#GOGOEND
|
|
0,
|
|
0, //78
|
|
#END
|
|
|
|
|
|
COURSE:Normal
|
|
LEVEL:2
|
|
BALLOON:9,9,9
|
|
SCOREINIT:520
|
|
SCOREDIFF:138
|
|
|
|
#START
|
|
1011,
|
|
1014,
|
|
1012,
|
|
1004,
|
|
|
|
1011,
|
|
1004,
|
|
1212,
|
|
1112,
|
|
#BPMCHANGE 99
|
|
1144, //9
|
|
|
|
#BPMCHANGE 140
|
|
1112,
|
|
10101110,
|
|
1112,
|
|
10101110,
|
|
|
|
1211,
|
|
10101110,
|
|
1111,
|
|
100000000000500000000000000000000008000000000000, //17
|
|
|
|
100000000000500000000000000000000008000000000000,
|
|
100000000000500000000000000000000008000000000000,
|
|
100000000000500000000000000000000008000000000000,
|
|
#GOGOSTART
|
|
100000000000500000000000000000000008000000000000,
|
|
|
|
100000000000100000000000500000000000000008000000,
|
|
1112,
|
|
100000000000600000000000000008000000400000000000,
|
|
3344,
|
|
#GOGOEND
|
|
0, //26
|
|
|
|
#BPMCHANGE 150
|
|
3001,
|
|
3001,
|
|
3002,
|
|
3222,
|
|
|
|
3121,
|
|
3001,
|
|
3222,
|
|
2222, //34
|
|
|
|
3001,
|
|
3001,
|
|
3,
|
|
3222,
|
|
|
|
4002,
|
|
4021,
|
|
600000000000000000000000000000000000000000000008,
|
|
0, //42
|
|
|
|
3001,
|
|
3112,
|
|
3001,
|
|
32,
|
|
|
|
4002,
|
|
4221,
|
|
4002,
|
|
4434, //50
|
|
|
|
#GOGOSTART
|
|
1111,
|
|
1112,
|
|
1111,
|
|
11,
|
|
1012,
|
|
#BPMCHANGE 151
|
|
1022, //56
|
|
|
|
#BPMCHANGE 140
|
|
3121,
|
|
70000008,
|
|
1121,
|
|
70000008,
|
|
1121,
|
|
70000008, //62
|
|
|
|
1344,
|
|
300000000000600000000000000000000000000000000008,
|
|
0344,
|
|
300000000000600000000000000000000000000000000008,
|
|
|
|
0122,
|
|
3344,
|
|
3333,
|
|
33, //70
|
|
|
|
1212,
|
|
1212,
|
|
500000000000000000000000000000000000000000000008,
|
|
0333,
|
|
|
|
3040,
|
|
600000000000000000000000000000000000000000000008,
|
|
#GOGOEND
|
|
0,
|
|
0, //78
|
|
#END
|
|
|
|
|
|
COURSE:Easy
|
|
LEVEL:2
|
|
BALLOON:7,7,7
|
|
SCOREINIT:580
|
|
SCOREDIFF:225
|
|
|
|
#START
|
|
11,
|
|
1,
|
|
11,
|
|
1,
|
|
|
|
11,
|
|
2,
|
|
11,
|
|
1110,
|
|
#BPMCHANGE 99
|
|
1033, //9
|
|
|
|
#BPMCHANGE 140
|
|
1,
|
|
11,
|
|
1,
|
|
11,
|
|
|
|
1,
|
|
1011,
|
|
1011,
|
|
000000000000500000000000000000000008000000000000, //17
|
|
|
|
000000000000500000000000000000000008000000000000,
|
|
000000000000500000000000000000000008000000000000,
|
|
000000000000500000000000000000000008000000000000,
|
|
#GOGOSTART
|
|
000000000000500000000000000000000008000000000000,
|
|
|
|
11,
|
|
1011,
|
|
1300,
|
|
3333,
|
|
#GOGOEND
|
|
0, //26
|
|
|
|
#BPMCHANGE 150
|
|
3,
|
|
3,
|
|
3,
|
|
31,
|
|
|
|
31,
|
|
3,
|
|
32,
|
|
22, //34
|
|
|
|
3,
|
|
3,
|
|
3,
|
|
31,
|
|
|
|
4,
|
|
4,
|
|
600000000000000000000000000000000000000000000008,
|
|
0, //42
|
|
|
|
3,
|
|
3,
|
|
3,
|
|
4,
|
|
|
|
3,
|
|
3,
|
|
3,
|
|
44, //50
|
|
|
|
#GOGOSTART
|
|
11,
|
|
1110,
|
|
11,
|
|
11,
|
|
11,
|
|
#BPMCHANGE 151
|
|
11, //56
|
|
|
|
#BPMCHANGE 140
|
|
3,
|
|
7,
|
|
8,
|
|
7,
|
|
8,
|
|
7, //62
|
|
|
|
8333,
|
|
300000000000600000000000000000000000000008000000,
|
|
0333,
|
|
300000000000600000000000000000000000000008000000,
|
|
|
|
0111,
|
|
3333,
|
|
3333,
|
|
33, //70
|
|
|
|
11,
|
|
11,
|
|
500000000000000000000000000000000000000008000000,
|
|
0333,
|
|
|
|
34,
|
|
600000000000000000000000000000000000000000000008,
|
|
#GOGOEND
|
|
0,
|
|
0, //78
|
|
#END |