generated from DragonRatTiger/Custom-Charts
729 lines
6.9 KiB
Plaintext
729 lines
6.9 KiB
Plaintext
TITLE:Irregular Man
|
|
TITLEJA:イレギュラーマン
|
|
SUBTITLE:--masarada feat. Kasane Teto
|
|
SUBTITLEJA:マサラダ feat. 重音テト
|
|
|
|
BPM:201
|
|
WAVE:Irregular Man.ogg
|
|
OFFSET:-1.833
|
|
DEMOSTART:52.405
|
|
PREIMAGE:image.png
|
|
BGMOVIE:video.mp4
|
|
|
|
|
|
COURSE:Oni
|
|
LEVEL:9
|
|
BALLOON:15
|
|
SCOREINIT:860
|
|
SCOREDIFF:0
|
|
|
|
#START
|
|
2,
|
|
10101110,
|
|
1111111111112000, // 3
|
|
|
|
#GOGOSTART
|
|
1002102010112020,
|
|
1020100010222020,
|
|
1002102010212010,
|
|
0022102210221220,
|
|
1002102010112020,
|
|
1020100010222020,
|
|
1111111011111110,
|
|
5008, // 11
|
|
|
|
#GOGOEND
|
|
10201121,
|
|
01201122,
|
|
40404401,
|
|
01001220,
|
|
10201121,
|
|
01201211,
|
|
101010202020101010200300,
|
|
0020102022102211, // 19
|
|
|
|
1000201110102010,
|
|
0010201110102020,
|
|
4000400022202010,
|
|
0020102022102210,
|
|
1000201110102010,
|
|
0010201021102110,
|
|
1010201110102030,
|
|
0030003011102211, // 27
|
|
|
|
1000200110102010,
|
|
01201220,
|
|
1000200110102010,
|
|
01202120,
|
|
1000100110102010,
|
|
0010002011102020,
|
|
1000200110102010,
|
|
0020102022112220, // 35
|
|
|
|
3,
|
|
3,
|
|
3,
|
|
3,
|
|
32212212,
|
|
32212212,
|
|
1111111150000000,
|
|
8000002220202020, // 43
|
|
|
|
#GOGOSTART
|
|
3002102010112020,
|
|
1002102010212020,
|
|
1010202010112020,
|
|
1022102010112220,
|
|
1002102010112020,
|
|
1002102010212020,
|
|
1010202010122010,
|
|
2011201120112211, // 51
|
|
|
|
1001102010111020,
|
|
1020100010112020,
|
|
4000400020222020,
|
|
1020100022112210,
|
|
1001102010111020,
|
|
1020100010112020,
|
|
100010001000200020002000
|
|
100010001000200000200200,
|
|
1011211022112210, // 59
|
|
|
|
1001102010121020,
|
|
1020100010112020,
|
|
1120112020222020,
|
|
1011101022112210,
|
|
1001102011101020,
|
|
1001102011102020,
|
|
10010336,
|
|
0008, // 67
|
|
|
|
#GOGOEND
|
|
1000202011102010,
|
|
0020102011102010,
|
|
1000201012102010,
|
|
0020201011201120,
|
|
1000202011102010,
|
|
0020102011202010,
|
|
1011201010122010,
|
|
1111111150000080, // 75
|
|
|
|
1002102010021020,
|
|
1011101010212020,
|
|
1011202010111010,
|
|
1011202020112122,
|
|
1002102010021020,
|
|
1011101010212020,
|
|
1011201010121010,
|
|
1011101111111010, // 83
|
|
|
|
1002102010021020,
|
|
1011101010212020,
|
|
1011202010111010,
|
|
1011202020112122,
|
|
1002102010021020,
|
|
1011101010212020,
|
|
1011201010121010,
|
|
1011101011112020,
|
|
0003, // 92
|
|
|
|
20000002,
|
|
00020222,
|
|
20202202,
|
|
00000222,
|
|
20202022,
|
|
02020222,
|
|
7,
|
|
8000002220202000, // 100
|
|
|
|
3111,
|
|
10101210,
|
|
1111,
|
|
10101210,
|
|
1111,
|
|
10101210,
|
|
1111111011111110,
|
|
2011201120112210, // 108
|
|
|
|
#GOGOSTART
|
|
3002102010112020,
|
|
1002102010212020,
|
|
1010202010112020,
|
|
1022102210112220,
|
|
1002102010112020,
|
|
1002102010212020,
|
|
1111111011111110,
|
|
2011201120112120, // 116
|
|
|
|
3002102010112020,
|
|
1022102010212020,
|
|
1011102010112020,
|
|
1022102210112220,
|
|
1002102010112020,
|
|
1022102010212020,
|
|
1111111011111110,
|
|
2011201120112110,
|
|
#GOGOEND
|
|
,
|
|
1111111111112000, // 126
|
|
|
|
#GOGOSTART
|
|
3001102010111020,
|
|
1020100010112020,
|
|
1001102010222020,
|
|
2010200020212020,
|
|
1001102010111020,
|
|
1020100010112020,
|
|
1111111011111110,
|
|
2011201120112211, // 134
|
|
|
|
1001201120112011,
|
|
2011201120112011,
|
|
1001201120112011,
|
|
2011201122112011,
|
|
1001201120112011,
|
|
2011201120112011,
|
|
1011111011111111,
|
|
5,
|
|
#GOGOEND
|
|
8, // 143
|
|
|
|
#END
|
|
|
|
|
|
COURSE:Hard
|
|
LEVEL:6
|
|
BALLOON:8,10,8
|
|
SCOREINIT:1490
|
|
SCOREDIFF:0
|
|
|
|
#START
|
|
2,
|
|
10101110,
|
|
7008, // 3
|
|
|
|
#GOGOSTART
|
|
10201122,
|
|
10201210,
|
|
10201212,
|
|
00202220,
|
|
10201122,
|
|
10201210,
|
|
11101110,
|
|
5008, // 11
|
|
|
|
#GOGOEND
|
|
10201121,
|
|
01001120,
|
|
40404401,
|
|
01001220,
|
|
10201121,
|
|
01001120,
|
|
111100222200,
|
|
12102120, // 19
|
|
|
|
10201121,
|
|
01001120,
|
|
40402221,
|
|
01012120,
|
|
10201121,
|
|
01021210,
|
|
11201123,
|
|
03030020, // 27
|
|
|
|
10201001,
|
|
01102000,
|
|
10201101,
|
|
01102000,
|
|
10102001,
|
|
01020220,
|
|
10001101,
|
|
02121210, // 35
|
|
|
|
3,
|
|
3,
|
|
3,
|
|
3,
|
|
30210210,
|
|
30210210,
|
|
11115000,
|
|
8, // 43
|
|
|
|
#GOGOSTART
|
|
30201121,
|
|
02021210,
|
|
11221120,
|
|
11212120,
|
|
10201121,
|
|
02021110,
|
|
11221125,
|
|
0008, // 51
|
|
|
|
10101112,
|
|
02001120,
|
|
40402221,
|
|
01001220,
|
|
10101112,
|
|
02001120,
|
|
111100222200,
|
|
10212120, // 59
|
|
|
|
10101112,
|
|
02001120,
|
|
40402221,
|
|
01012120,
|
|
10201121,
|
|
01021210,
|
|
10010336,
|
|
0008, // 67
|
|
|
|
#GOGOEND
|
|
10201011,
|
|
0212,
|
|
10201011,
|
|
0222,
|
|
10201011,
|
|
0212,
|
|
11101110,
|
|
11115008, // 75
|
|
|
|
10121012,
|
|
10111220,
|
|
11221120,
|
|
11222000,
|
|
10121012,
|
|
10111220,
|
|
11221120,
|
|
11111000, // 83
|
|
|
|
10121012,
|
|
10111220,
|
|
11221120,
|
|
11222000,
|
|
10121012,
|
|
10111220,
|
|
11221120,
|
|
11111020,
|
|
0003, // 92
|
|
|
|
20000002,
|
|
00020220,
|
|
20202202,
|
|
00000220,
|
|
20202002,
|
|
02020220,
|
|
7,
|
|
80022220, // 100
|
|
|
|
3111,
|
|
10101210,
|
|
1111,
|
|
1110,
|
|
1111,
|
|
10101210,
|
|
11101110,
|
|
5008, // 108
|
|
|
|
#GOGOSTART
|
|
30201121,
|
|
02021210,
|
|
11221120,
|
|
11212120,
|
|
10201121,
|
|
02021110,
|
|
11111115,
|
|
0008, // 116
|
|
|
|
30201121,
|
|
02021210,
|
|
11221120,
|
|
11212120,
|
|
10201121,
|
|
02221110,
|
|
11111115,
|
|
,
|
|
#GOGOEND
|
|
8,
|
|
7008, // 126
|
|
|
|
#GOGOSTART
|
|
30201122,
|
|
10201210,
|
|
10201212,
|
|
02222220,
|
|
10201122,
|
|
10201210,
|
|
11111111,
|
|
5008, // 134
|
|
|
|
11201120,
|
|
11211120,
|
|
11201120,
|
|
11212120,
|
|
11201120,
|
|
11211120,
|
|
11111111,
|
|
5,
|
|
#GOGOEND
|
|
8, // 143
|
|
|
|
#END
|
|
|
|
|
|
COURSE:Normal
|
|
LEVEL:5
|
|
BALLOON:6,8,6
|
|
SCOREINIT:2240
|
|
SCOREDIFF:0
|
|
|
|
#START
|
|
2,
|
|
1111,
|
|
7008, // 3
|
|
|
|
#GOGOSTART
|
|
1122,
|
|
1022,
|
|
1122,
|
|
0222,
|
|
1122,
|
|
1022,
|
|
1111,
|
|
5008, // 11
|
|
|
|
#GOGOEND
|
|
10101011,
|
|
01001010,
|
|
40402201,
|
|
01000000,
|
|
10101011,
|
|
01001010,
|
|
1122,
|
|
1212, // 19
|
|
|
|
10101011,
|
|
01001010,
|
|
40402201,
|
|
01000000,
|
|
10201001,
|
|
01011000,
|
|
10101013,
|
|
03030000, // 27
|
|
|
|
10001001,
|
|
0120,
|
|
10001001,
|
|
0220,
|
|
10102001,
|
|
01020020,
|
|
10001001,
|
|
0111, // 35
|
|
|
|
3,
|
|
3,
|
|
3,
|
|
3,
|
|
3111,
|
|
3111,
|
|
5,
|
|
8, // 43
|
|
|
|
#GOGOSTART
|
|
10201101,
|
|
02011000,
|
|
1111,
|
|
2220,
|
|
10201101,
|
|
02011000,
|
|
1111,
|
|
5008, // 51
|
|
|
|
10101102,
|
|
02001010,
|
|
40402201,
|
|
01000000,
|
|
10101102,
|
|
02001010,
|
|
1122,
|
|
1212, // 59
|
|
|
|
10101102,
|
|
02001010,
|
|
40402201,
|
|
01000000,
|
|
10101001,
|
|
01001010,
|
|
10010116,
|
|
0008, // 67
|
|
|
|
#GOGOEND
|
|
10201001,
|
|
0210,
|
|
10201001,
|
|
0220,
|
|
10201001,
|
|
0210,
|
|
1111,
|
|
5008, // 75
|
|
|
|
1111,
|
|
10111000,
|
|
1111,
|
|
10222000,
|
|
1111,
|
|
10111000,
|
|
1111,
|
|
10111000, // 83
|
|
|
|
1111,
|
|
10111000,
|
|
1111,
|
|
10222000,
|
|
1111,
|
|
10111000,
|
|
1111,
|
|
10111020,
|
|
0003, // 92
|
|
|
|
20000002,
|
|
00020020,
|
|
20002002,
|
|
,
|
|
20202002,
|
|
02020020,
|
|
7,
|
|
80022020, // 100
|
|
|
|
3111,
|
|
1110,
|
|
1111,
|
|
1110,
|
|
1111,
|
|
1110,
|
|
1111,
|
|
5008, // 108
|
|
|
|
#GOGOSTART
|
|
10201101,
|
|
02011000,
|
|
1111,
|
|
2220,
|
|
10201101,
|
|
02011000,
|
|
1111,
|
|
5008, // 116
|
|
|
|
10201101,
|
|
02011020,
|
|
1111,
|
|
2220,
|
|
10201101,
|
|
02011020,
|
|
1111,
|
|
5,
|
|
#GOGOEND
|
|
8,
|
|
7008, // 126
|
|
|
|
#GOGOSTART
|
|
1122,
|
|
1022,
|
|
1122,
|
|
0222,
|
|
1122,
|
|
1022,
|
|
1111,
|
|
5008, // 134
|
|
|
|
1122,
|
|
1122,
|
|
1122,
|
|
0222,
|
|
1122,
|
|
1122,
|
|
10101110,
|
|
5,
|
|
#GOGOEND
|
|
8, // 143
|
|
|
|
#END
|
|
|
|
|
|
COURSE:Easy
|
|
LEVEL:4
|
|
BALLOON:4,6,4
|
|
SCOREINIT:3200
|
|
SCOREDIFF:0
|
|
|
|
#START
|
|
2,
|
|
11,
|
|
7008, // 3
|
|
|
|
#GOGOSTART
|
|
1011,
|
|
1,
|
|
2022,
|
|
2,
|
|
1011,
|
|
1,
|
|
2022,
|
|
58, // 11
|
|
|
|
#GOGOEND
|
|
10001001,
|
|
01000000,
|
|
20002002,
|
|
02000000,
|
|
10001001,
|
|
01000000,
|
|
1110,
|
|
2220, // 19
|
|
|
|
10001001,
|
|
01000000,
|
|
20002002,
|
|
02000000,
|
|
10001001,
|
|
01000000,
|
|
10101003,
|
|
03030000, // 27
|
|
|
|
10001001,
|
|
02,
|
|
10001001,
|
|
02,
|
|
10001001,
|
|
02,
|
|
10001001,
|
|
02, // 35
|
|
|
|
3,
|
|
3,
|
|
3,
|
|
3,
|
|
3110,
|
|
3110,
|
|
5,
|
|
8, // 43
|
|
|
|
#GOGOSTART
|
|
10101001,
|
|
01010000,
|
|
1110,
|
|
2220,
|
|
10101001,
|
|
01010000,
|
|
1111,
|
|
58, // 51
|
|
|
|
10001001,
|
|
01000000,
|
|
20002002,
|
|
02000000,
|
|
10001001,
|
|
01000000,
|
|
1110,
|
|
2220, // 59
|
|
|
|
10001001,
|
|
01000000,
|
|
20002002,
|
|
02000000,
|
|
10001001,
|
|
01000000,
|
|
10030306,
|
|
08, // 67
|
|
|
|
#GOGOEND
|
|
10001001,
|
|
,
|
|
10001001,
|
|
,
|
|
10001001,
|
|
,
|
|
1111,
|
|
58, // 75
|
|
|
|
1110,
|
|
1110,
|
|
1110,
|
|
1120,
|
|
1110,
|
|
1110,
|
|
1110,
|
|
1110, // 83
|
|
|
|
1110,
|
|
1110,
|
|
1110,
|
|
1120,
|
|
1110,
|
|
1110,
|
|
1110,
|
|
1111,
|
|
, // 92
|
|
|
|
20000002,
|
|
,
|
|
20000002,
|
|
,
|
|
20000002,
|
|
,
|
|
7,
|
|
8, // 100
|
|
|
|
3110,
|
|
1110,
|
|
1110,
|
|
1110,
|
|
1110,
|
|
1110,
|
|
1111,
|
|
58, // 108
|
|
|
|
#GOGOSTART
|
|
10101001,
|
|
01010000,
|
|
1110,
|
|
2220,
|
|
10101001,
|
|
01010000,
|
|
1111,
|
|
58, // 116
|
|
|
|
10101001,
|
|
01010000,
|
|
1111,
|
|
1120,
|
|
10101001,
|
|
01010000,
|
|
1111,
|
|
5,
|
|
#GOGOEND
|
|
8,
|
|
7008, // 126
|
|
|
|
#GOGOSTART
|
|
1011,
|
|
11,
|
|
2022,
|
|
22,
|
|
1011,
|
|
11,
|
|
2022,
|
|
58, // 134
|
|
|
|
1111,
|
|
11,
|
|
2222,
|
|
2220,
|
|
1111,
|
|
11,
|
|
1111,
|
|
5,
|
|
#GOGOEND
|
|
8, // 143
|
|
|
|
#END
|