Files
ESE/07 Game Music/Dragon Saber Submerged City Theme/Dragon Saber Submerged City Theme.tja
2023-06-15 19:00:23 -05:00

457 lines
6.0 KiB
Plaintext

//TJADB Project
TITLE:Dragon Saber Submerged City Theme
TITLEJA:ドラゴンセイバー 水没都市
SUBTITLE:--Shinji Hosoe (Sampling Masters MEGA)/Dragon Saber
BPM:102.2
WAVE:Dragon Saber Submerged City Theme.ogg
OFFSET:-2.517
DEMOSTART:20.517
COURSE:Oni
LEVEL:8
BALLOON:30
SCOREINIT:430
SCOREDIFF:103
#START
#SCROLL 1.1
1001102011011020,
1020100211011020,
1010200210102002,
#MEASURE 8/4
#BPMCHANGE 204.4
#SCROLL 0.55
10002220001000101000100020200000,
#MEASURE 4/4
#BPMCHANGE 102.2
#SCROLL 1.1
1001102011011020,
1020100211011020,
1010200210102002,
#BPMCHANGE 152.7
#SCROLL 1
1011111120222222,
#GOGOSTART
#BPMCHANGE 153.26
1010201011102010,
1020111020112010,
1010201011102010,
1020111022221110,
1010201011102010,
1020111020112010,
1010201011102010,
2220222021103000,
1220100210102002,
1220100210112210,
#GOGOEND
1010201011102010,
1010201011201020,
1010201011102010,
1010201010112112,
1010201011102010,
1010201011201020,
1010201011102010,
1010222011102210,
1010201011102010,
1010201011201020,
1010201011102010,
1010201010112112,
1010201011102010,
1010201011201020,
11210121,
1020201122102222,
1110201110201120,
1110201110201120,
1110201110201120,
1110201110204010,
1110201110201120,
1110201110201120,
1110201110201120,
1110201110202210,
1111201111201120,
1111201111201120,
1111201111201120,
1111201111204010,
1111201111201120,
1111201111201120,
1111201111201111,
2022221102020211,
1011200010111202,
1011200010112210,
1011200010111202,
1011200010112202,
1011200010111202,
1011200010112210,
1011200010111202,
1011200010112222,
1011200110111202,
1011200110112210,
1011200110111202,
1011200210112202,
1011200110111202,
1011200110112210,
1011200110111202,
1011200210112202,
12232232,
23223030,
#GOGOSTART
1010201011102010,
1020111020112010,
1010201011102010,
1020111022221110,
1010201011102010,
1020111020112010,
1010201011102010,
2220222021107000,
,
08,
34000000,
#GOGOEND
#END
COURSE:Hard
LEVEL:7
BALLOON:24
SCOREINIT:470
SCOREDIFF:120
#START
#SCROLL 1.1
1001100011011000,
1020100011011020,
11201120,
#MEASURE 8/4
#BPMCHANGE 204.4
#SCROLL 0.55
1020010010102200,
#MEASURE 4/4
#BPMCHANGE 102.2
#SCROLL 1.1
1001100011011000,
1020100011011020,
11201120,
#BPMCHANGE 152.7
#SCROLL 1
1010101020202220,
#GOGOSTART
#BPMCHANGE 153.26
1010200011102010,
0020111020102000,
1010200011102010,
0020111022201000,
1010200011102010,
0020111020102000,
1010200011102000,
2220222022203000,
1110100010102000,
1110100010102220,
#GOGOEND
1010200011102000,
11201212,
1010200011102000,
1010200010112000,
1010200011102000,
11201212,
1010200011102000,
1010222010103000,
1010200011102000,
11201212,
1010200011102000,
1010200010112000,
1010200011102000,
11201212,
11210120,
12212130,
1110001110002000,
1110001110002000,
1110001110002000,
1110001110102000,
1110001110002000,
1110001110002000,
1110001110002000,
1110001110102200,
1111001111002000,
1111001111002000,
1111001111002000,
1111001111002200,
1111001111002000,
1111001111002000,
1111001111002000,
500000000000000000000000000000000008000000000000,
10201120,
1000200010102200,
10201120,
1010200010102200,
10201120,
1000200010102200,
10201120,
1010200011102220,
1010200010102200,
1010200010112200,
1010200010102200,
1010200010112200,
1010200010102200,
1010200010112200,
1010200010102200,
1010220011102220,
12212212,
21221030,
#GOGOSTART
1010200011102010,
0020111020102000,
1010200011102010,
0020111020102220,
1010200011102010,
0020111020102000,
1010200011102000,
2220222022207000,
,
08,
34000000,
#GOGOEND
#END
COURSE:Normal
LEVEL:7
BALLOON:18
SCOREINIT:730
SCOREDIFF:208
#START
#SCROLL 1.1
1001100010000000,
12101000,
11101110,
#MEASURE 8/4
#BPMCHANGE 204.4
#SCROLL 0.55
22001110,
#MEASURE 4/4
#BPMCHANGE 102.2
#SCROLL 1.1
1001100010000000,
12101000,
11101110,
#BPMCHANGE 152.7
#SCROLL 1
10101111,
#GOGOSTART
#BPMCHANGE 153.25
10010020,
01002020,
10010020,
01002020,
10010020,
01002020,
10010020,
01002050,
,
000000000000000000000000000008000000000000000000,
#GOGOEND
11101000,
1210,
11101000,
1210,
11101000,
1210,
11101000,
1213,
11101000,
1210,
11101000,
1210,
11101000,
1210,
20020020,
10101110,
1110001110000000,
1110001110000000,
1110001110000000,
2220002220000000,
1110001110000000,
1110001110000000,
1110001110000000,
2220002220000000,
1110002220000000,
1110002220000000,
1110002220000000,
2220002220000000,
1110002220000000,
1110002220000000,
1110002220000000,
500000000000000000000000000000000008000000000000,
1110,
10101120,
1110,
0000200000002200,
1110,
10101120,
1110,
0000200000002200,
11101000,
10201120,
11101000,
0000200000002200,
11101000,
10201120,
11101000,
0000220011002200,
10030030,
04003030,
#GOGOSTART
10010020,
01002020,
10010020,
01002020,
10010020,
01002020,
10010020,
01002070,
,
08,
33000000,
#GOGOEND
#END
COURSE:Easy
LEVEL:5
BALLOON:14
SCOREINIT:510
SCOREDIFF:155
#START
#SCROLL 1.1
1110,
12001000,
1110,
#MEASURE 8/4
#BPMCHANGE 204.4
#SCROLL 0.55
12001000,
#MEASURE 4/4
#BPMCHANGE 102.2
#SCROLL 1.1
1110,
12001000,
1110,
#BPMCHANGE 152.7
#SCROLL 1
500000000000000000000000000000000008000000000000,
#GOGOSTART
#BPMCHANGE 153.25
10010010,
01002020,
10010010,
01002020,
10010010,
01002020,
10010010,
01002050,
,
000000000000000000000000000008000000000000000000,
#GOGOEND
1110,
1210,
1110,
1210,
1110,
1210,
1110,
1230,
1110,
1210,
1110,
1210,
1110,
1210,
20020000,
1130,
11011000,
11011000,
11011000,
11011000,
11011000,
11011000,
11011000,
22022000,
11022000,
11022000,
11022000,
11022000,
11022000,
11022000,
11022000,
500000000000000000000000000000000008000000000000,
1110,
11001100,
1110,
0202,
1110,
11001100,
1110,
0202,
1110,
11002200,
1110,
0202,
1110,
11002200,
1110,
22002200,
20020020,
02001010,
#GOGOSTART
10010010,
01002020,
10010010,
01002020,
10010010,
01002020,
10010010,
01002070,
,
08,
33000000,
#GOGOEND
#END