Files
2023-06-15 19:00:23 -05:00

304 lines
12 KiB
Plaintext

//TJADB Project
TITLE:Famicom Remix
TITLEJA:ファミコンリミックス
SUBTITLE:--Famicom Artists/Famicom Remix
BPM:120
WAVE:Famicom Remix.ogg
OFFSET:-3.287
DEMOSTART:67.284
COURSE:Oni
LEVEL:8
BALLOON:8,8
SCOREINIT:690
SCOREDIFF:185
#START
100010000010200000100010000010200000100010100000,
100010000020100000100010000020100000200020200020,
100010000010200000100010000010200000100010100000,
100000000000500000000000000000000000000008000000,
100000200000100200000100000100200000100000200000,
100020100020100010000020000600000000008000000000,
100000200000100200000100000100200000100000200000,
300000000000400000000000300000000000400000000030,
000000100000200010000010000020100000200000200000,
100000100000200010000020000020100000200000200000,
000000100010200010000010000020100000200000200000,
100000100100200000200200100000100100200000200200,
100000200000100200000100000100200000100000100000,
200000200000100100000100000200200000300000000000,
100000200000100200000100000100200000100000100000,
200100000200100000100100000200200000000000000000,
000000100000100000200000100000200100000100200000,
100000200100000100200000100000200000100000200200,
000000100000100000200000100000200100000100200000,
500000000000000000000000000000000008000000000000,
100000000010200000100000000000200000100020100000,
100000000010200000000000300000000000300000000000,
100000000010200000100000000300000000400000100000,
100000000010200000000000700000000000000800000000,
100000000010200000100000000000200000100020100000,
100000000010200000000000100100200200100200000000,
100000000010200000100000000400000000100020100000,
100000000010200000000000100200100000400000000000,
100200000100200000200100000200100000200200100000,
100200000100200000200100000200100000100100200000,
100200000100200000200100000200100000200200100000,
100010002000200000000000000000000000000000000000,
#GOGOSTART
100000200000100200000100000100200000100000200000,
100020100020100010000020000600000000008000000000,
100000200000100200000100000100200000100000200000,
300000000000400000000000300000000000400000000030,
000000100000200010000010000020100000200000200000,
100000100000200010000020000020100000200000200000,
000000100010200010000010000020100000200000200000,
100010100010200020200020100010100010200020200020,
100000200000100200000100000100200000100000100000,
200000200000100100000100000200200000300000000000,
100000200000100200000100000100200000100000100000,
100020200020100000200000100020100020100010000020,
000000100000100000200000100000200100000100200000,
100000200100000100200000100000200000100000200200,
000000100000100000200000100000200100000100200000,
500000000000000000000000000000000008000000000000,
#GOGOEND
100000000010200000100000000000200000100020100000,
100000000010200000000000300000000000300000000000,
100000000010200000100000000300000000400000100000,
100000000010200000000000700000000000000800000000,
100000000010200000100000000000200000100020100000,
100000000010200000200200100100200200100200000000,
100000000010200000100000000400000000100020100000,
#BPMCHANGE 120.4
100000000010200000200200100200100000400000000000,
#END
COURSE:Hard
LEVEL:6
BALLOON:6,15,6
SCOREINIT:680
SCOREDIFF:190
#START
100010000010100000100010000010100000000000000000,
200020000020200000200020000020200000000000000000,
100010000010100000100010000010100000000000000000,
300000000000500000000000000000000000000800000000,
100000100000100100000100000000100000100000000000,
200000200000200020000020000000000000000000000000,
100000100000100100000100000000100000100000000000,
300000000000400000000000300000000000400000000030,
000000100000100000000010000000100000100000000000,
200000200000200000000020000020000000000000000000,
000000100010000010000010000000100000100000000000,
100000100000200000200000100000100000200000200000,
000000100000100100000100000000100000100000000000,
200000200000200200000200000100000000300000000000,
000000100000100100000100000000100000100000000000,
100100000100100000100100000100100000000000000000,
000000100000100000100000100000000100000100100000,
100000000100000100100000200000200000200000200000,
000000100000100000100000100000000100000100100000,
500000000000000000000000000000000800000000000000,
100000000010100000100000000000200000100000100000,
100000000020200000000000300000000000300000000000,
100000000010100000100000000300000000100000200000,
100000000020200000000000700000000000000080000000,
100000000010100000100000000000200000100000100000,
100000000020200000000000100100100100100100000000,
100000000010100000100000000400000000100000200000,
100000000020200000000000100100100000300000000000,
100100000100100000100100000100100000000000000000,
200200000200200000200200000200200000000000000000,
100100000100100000100100000100100000000000000000,
100010002000200000000000000000000000000000000000,
#GOGOSTART
100000100000100100000100000000100000100000000000,
200000200000200020000000200060000000008000000000,
100000100000100100000100000000100000100000000000,
300000000000400000000000300000000000400000000030,
000000100000100000000010000000100000100000000000,
200000200000200000000020000020000000000000000000,
000000100010000010000010000000100000100000000000,
100000100000200000200000100000100000200000200000,
000000100000100100000100000000100000100000000000,
200000200000200200000200000100000000300000000000,
000000100000100100000100000000100000100000000000,
700000000000000000000000000000000800000000000000,
000000100000100000100000100000000100000100100000,
100000000100000100100000200000200000200000200000,
000000100000100000100000100000000100000100100000,
500000000000000000000000000000000800000000000000,
#GOGOEND
100000000010100000100000000000200000100000100000,
100000000020200000000000300000000000300000000000,
100000000010100000100000000300000000100000200000,
100000000020200000000000700000000000000080000000,
100000000010100000100000000000200000100000100000,
100000000020200000000000100100100100100100000000,
100000000010100000100000000400000000100000200000,
100000000020200000000000100100100000300000000000,
#END
COURSE:Normal
LEVEL:6
BALLOON:4,8,4
SCOREINIT:830
SCOREDIFF:263
#START
300000000000300000300000000000300000000000000000,
400000000000400000400000000000400000000000000000,
300000000000300000300000000000300000000000000000,
300000000000500000000000000000000080000000000000,
100000000000100000000100000000100000100000000000,
200000200000200000000200000000000000000000000000,
100000000000100000000100000000100000100000000000,
500000000000000000000000000000000000000080000000,
000000100000100000000010000000100000100000000000,
200000000000200000000020000020000000000000000000,
000000100000100000000010000000100000100000000000,
100000000000200000000000100000000000200000000000,
000000100000100000000100000000100000100000000000,
200000000000200000000200000000000000300000000000,
000000100000100000000100000000100000100000000000,
500000000000000000000000000000000080000000000000,
000000100000100000100000100000000100000000000000,
100000000100000000000000200000200000200000200000,
000000100000100000100000100000000100000000000000,
500000000000000000000000000000000080000000000000,
100000000010000000100000000000000000100000100000,
100000000010000000000000300000000000300000000000,
100000000010000000100000000000000000100000100000,
100000000010000000000000700000000080000000000000,
100000000010000000100000000000000000100000100000,
100000000010000000000000100000100000200000000000,
100000000010000000100000000000000000100000100000,
100000000010000000000000100000100000300000000000,
100000000000100000100000000000100000000000000000,
200000000000200000200000000000200000000000000000,
100000000000100000100000000000100000000000000000,
100010001000100000000000000000000000000000000000,
#GOGOSTART
100000000000100000000100000000100000100000000000,
200000200000200000000200000000000000000000000000,
100000000000100000000100000000100000100000000000,
500000000000000000000000000000000000000080000000,
000000100000100000000010000000100000100000000000,
200000000000200000000020000020000000000000000000,
000000100000100000000010000000100000100000000000,
100000000000200000000000100000000000200000000000,
000000100000100000000100000000100000100000000000,
200000200000200000000200000000000000300000000000,
000000100000100000000100000000100000100000000000,
700000000000000000000000000000000080000000000000,
000000100000100000100000100000000100000000000000,
100000000100000000000000200000200000200000200000,
000000100000100000100000100000000100000000000000,
500000000000000000000000000000000080000000000000,
#GOGOEND
100000000010000000100000000000000000100000100000,
100000000010000000000000300000000000300000000000,
100000000010000000100000000000000000100000100000,
100000000010000000000000700000000080000000000000,
100000000010000000100000000000000000100000100000,
100000000010000000000000100000100000200000000000,
100000000010000000100000000400000000100000100000,
100000000010000000000000100000100000300000000000,
#END
COURSE:Easy
LEVEL:4
BALLOON:3,6,3
SCOREINIT:820
SCOREDIFF:375
#START
300000000000000000300000000000000000000000000000,
400000000000000000400000000000000000000000000000,
300000000000000000300000000000000000000000000000,
500000000000000000000000000080000000000000000000,
100000000000100000000100000000000000000000000000,
500000000000000000000080000000000000000000000000,
100000000000100000000100000000000000000000000000,
300000000000000000000000300000000000000000000000,
100000000000100000000010000000000000000000000000,
200000000000200000000020000000000000000000000000,
100000000000100000000010000000000000000000000000,
200000000000000000000000200000000000000000000000,
100000000000100000000100000000000000000000000000,
200000000000200000000200000000000000300000000000,
100000000000100000000100000000000000000000000000,
500000000000000000000000000080000000000000000000,
000000000000000000000000100000000100000000000000,
100000000100000000000000500000000000000000000080,
000000000000000000000000100000000100000000000000,
500000000000000000000000000080000000000000000000,
100000000000000000100000000000000000000000000000,
100000000000000000000000300000000000300000000000,
100000000000000000100000000000000000000000000000,
100000000000000000000000700000000080000000000000,
100000000000000000100000000000000000000000000000,
100000000000000000000000400000000000400000000000,
100000000000000000100000000000000000000000000000,
100000000000000000000000100000000000100000000000,
100000000000000000100000000000000000000000000000,
200000000000000000200000000000000000000000000000,
100000000000000000100000000000000000000000000000,
600000000000000000000000000080000000000000000000,
#GOGOSTART
100000000000100000000100000000000000000000000000,
500000000000000000000080000000000000000000000000,
100000000000100000000100000000000000000000000000,
300000000000000000000000300000000000000000000000,
100000000000100000000010000000000000000000000000,
200000000000200000000020000000000000000000000000,
100000000000100000000010000000000000000000000000,
500000000000000000000000000080000000000000000000,
100000000000100000000100000000000000000000000000,
200000000000200000000200000000000000300000000000,
100000000000100000000100000000000000000000000000,
700000000000000000000000000000000080000000000000,
000000000000000000000000100000000100000000000000,
100000000100000000000000500000000000000000000080,
000000000000000000000000100000000100000000000000,
500000000000000000000000000080000000000000000000,
#GOGOEND
100000000000000000100000000000000000000000000000,
100000000000000000000000300000000000300000000000,
100000000000000000100000000000000000000000000000,
100000000000000000000000700000000080000000000000,
100000000000000000100000000000000000000000000000,
100000000000000000000000400000000000400000000000,
100000000000000000100000000400000000000000000000,
100000000000000000000000100000000000300000000000,
#END