323 lines
3.8 KiB
Plaintext
323 lines
3.8 KiB
Plaintext
//TJADB Project
|
|
TITLE:Hole in the wall
|
|
TITLEJA:Hole in the wall
|
|
SUBTITLE:--Akitaka Toyama feat. Crab Prince/Muscle March
|
|
SUBTITLEJA:「マッスル行進曲」より
|
|
BPM:140
|
|
WAVE:Hole in the wall.ogg
|
|
OFFSET:-1.906
|
|
DEMOSTART:49.897
|
|
|
|
COURSE:Oni
|
|
LEVEL:8
|
|
BALLOON:16,180
|
|
SCOREINIT:760
|
|
SCOREDIFF:190
|
|
|
|
|
|
#START
|
|
|
|
|
|
,
|
|
,
|
|
1022020210220202,
|
|
1022020210000000,
|
|
1022102010221020,
|
|
1022102010221020,
|
|
1022102010221020,
|
|
1022102010221020,
|
|
3022102010221020,
|
|
1022102010221020,
|
|
1022102010221020,
|
|
1022020210000000,
|
|
1022102210221022,
|
|
1010101000220022,
|
|
0022002200220022,
|
|
0022002200222020,
|
|
1022102210221022,
|
|
1010101000220022,
|
|
0022002200220022,
|
|
0022002200222020,
|
|
1011012011012011,
|
|
1011012011012011,
|
|
7,
|
|
08001010,
|
|
1011012011012011,
|
|
1011012011012011,
|
|
1012012012012010,
|
|
100000000000500000000000000000000000000008000000,
|
|
|
|
#GOGOSTART
|
|
1010202210112012,
|
|
0030030030000000,
|
|
1010202210112010,
|
|
0030040030000000,
|
|
1010202210112010,
|
|
0030030040000010,
|
|
11210115,
|
|
000000000000000000000000000000000008000000000000,
|
|
1010202210112012,
|
|
0030030030000000,
|
|
1010202210112010,
|
|
0030040030000000,
|
|
1010202210112010,
|
|
0030030040000010,
|
|
11210115,
|
|
000000000000000000000000000000000008000000000000,
|
|
|
|
#GOGOEND
|
|
1022102010221020,
|
|
1022102010221020,
|
|
1022102210221020,
|
|
1022102210221020,
|
|
3022102210221022,
|
|
1022102210221022,
|
|
1022122210221222,
|
|
1022122210221222,
|
|
7,
|
|
,
|
|
,
|
|
,
|
|
,
|
|
,
|
|
,
|
|
0000000000000800,
|
|
1001002200000000,
|
|
|
|
|
|
#END
|
|
|
|
|
|
COURSE:Hard
|
|
LEVEL:7
|
|
BALLOON:14,140
|
|
SCOREINIT:810
|
|
SCOREDIFF:210
|
|
|
|
|
|
#START
|
|
|
|
|
|
,
|
|
,
|
|
1022022010220220,
|
|
1022022010000000,
|
|
12121210,
|
|
12121210,
|
|
12121210,
|
|
12121210,
|
|
32121210,
|
|
12121210,
|
|
12121210,
|
|
1022022010000000,
|
|
12121212,
|
|
11110000,
|
|
2222,
|
|
2220,
|
|
12121212,
|
|
11110000,
|
|
2222,
|
|
2220,
|
|
1011011011011000,
|
|
1011011011011000,
|
|
7,
|
|
08001010,
|
|
1011011011011000,
|
|
1011011011011000,
|
|
1011011011011000,
|
|
100000000000500000000000000000000000000008000000,
|
|
#GOGOSTART
|
|
1010202010111011,
|
|
0030030030000000,
|
|
1010202010111010,
|
|
0030040030000000,
|
|
1010202010111010,
|
|
0030030040000010,
|
|
11210115,
|
|
000000000000000000000000000000000008000000000000,
|
|
1010202010111011,
|
|
0030030030000000,
|
|
1010202010111010,
|
|
0030040030000000,
|
|
1010202010111010,
|
|
0030030040000010,
|
|
11210115,
|
|
000000000000000000000000000000000008000000000000,
|
|
#GOGOEND
|
|
12121210,
|
|
12121210,
|
|
12121210,
|
|
12121210,
|
|
12121212,
|
|
12121212,
|
|
12121212,
|
|
1022102010221020,
|
|
7,
|
|
0,
|
|
0,
|
|
0,
|
|
0,
|
|
0,
|
|
0,
|
|
000000000000000000080000,
|
|
1001002200000000,
|
|
|
|
|
|
#END
|
|
|
|
|
|
COURSE:Normal
|
|
LEVEL:6
|
|
BALLOON:11,100
|
|
SCOREINIT:990
|
|
SCOREDIFF:313
|
|
|
|
|
|
#START
|
|
|
|
|
|
0,
|
|
0,
|
|
12001200,
|
|
12003000,
|
|
1111,
|
|
1112,
|
|
1111,
|
|
1112,
|
|
3111,
|
|
1112,
|
|
1111,
|
|
2220,
|
|
1111,
|
|
11110000,
|
|
2222,
|
|
2220,
|
|
1111,
|
|
11110000,
|
|
2222,
|
|
2220,
|
|
1120,
|
|
1122,
|
|
7,
|
|
08000000,
|
|
1120,
|
|
1122,
|
|
500000000000000000000000000000000008000000000000,
|
|
1120,
|
|
#GOGOSTART
|
|
10101111,
|
|
0030030030000000,
|
|
10101111,
|
|
0040040040000000,
|
|
10101111,
|
|
0030030030000000,
|
|
10110500,
|
|
000000000000000000000000000000000008000000000000,
|
|
10101111,
|
|
0030030030000000,
|
|
10101111,
|
|
0040040040000000,
|
|
10101111,
|
|
0030030030000000,
|
|
10110500,
|
|
000000000000000000000000000000000008000000000000,
|
|
#GOGOEND
|
|
1111,
|
|
1112,
|
|
1111,
|
|
1112,
|
|
1111,
|
|
10101110,
|
|
1111,
|
|
11101020,
|
|
7,
|
|
0,
|
|
0,
|
|
0,
|
|
0,
|
|
0,
|
|
0,
|
|
000000000000000000080000,
|
|
3003003000000000,
|
|
|
|
|
|
#END
|
|
|
|
|
|
COURSE:Easy
|
|
LEVEL:4
|
|
BALLOON:8,80
|
|
SCOREINIT:870
|
|
SCOREDIFF:370
|
|
|
|
|
|
#START
|
|
|
|
|
|
0,
|
|
0,
|
|
11,
|
|
13,
|
|
1110,
|
|
1110,
|
|
1111,
|
|
1110,
|
|
1110,
|
|
1110,
|
|
1111,
|
|
1110,
|
|
1110,
|
|
1100,
|
|
2220,
|
|
2220,
|
|
1110,
|
|
1100,
|
|
2220,
|
|
2220,
|
|
12,
|
|
12,
|
|
7,
|
|
08000000,
|
|
12,
|
|
12,
|
|
500000000000000000000000000008000000000000000000,
|
|
12,
|
|
#GOGOSTART
|
|
1111,
|
|
03,
|
|
1111,
|
|
04,
|
|
1111,
|
|
03,
|
|
10100500,
|
|
000000000000000000000000000008000000000000000000,
|
|
1111,
|
|
03,
|
|
1111,
|
|
04,
|
|
1111,
|
|
03,
|
|
10100500,
|
|
000000000000000000000000000008000000000000000000,
|
|
#GOGOEND
|
|
1110,
|
|
1110,
|
|
1111,
|
|
1110,
|
|
1110,
|
|
1110,
|
|
1111,
|
|
1111,
|
|
9,
|
|
0,
|
|
0,
|
|
0,
|
|
0,
|
|
0,
|
|
0,
|
|
000000000000000000080000,
|
|
|
|
|
|
#END
|
|
|