989 lines
11 KiB
Plaintext
989 lines
11 KiB
Plaintext
//TJADB Project
|
|
TITLE:KAGEKIYO -Old Chart-
|
|
TITLEJA:KAGEKIYO
|
|
TITLEZH:KAGEKIYO
|
|
SUBTITLE:--Yuuji Masubuchi/Genpei Touma Den Medley
|
|
SUBTITLEJA:旧譜面 源平討魔伝メドレー
|
|
SUBTITLEZH:源平讨魔传Medley
|
|
BPM:130.81
|
|
WAVE:KAGEKIYO Genpei Touma Den Medley.ogg
|
|
OFFSET:-2.173
|
|
DEMOSTART:19.727
|
|
|
|
//Oni Charts ignored (chart unchanged since release)
|
|
//Oni and Hard DP Chart ignored (same as current Sou-uchi Ura)
|
|
//Hard SP/Normal SP: CS3 Chart
|
|
//Normal DP/Easy SP/Easy DP: TDM Chart
|
|
|
|
COURSE:Hard
|
|
LEVEL:7
|
|
BALLOON:
|
|
SCOREINIT:370
|
|
SCOREDIFF:80
|
|
|
|
#START
|
|
11,
|
|
#BPMCHANGE 126.65
|
|
1150,
|
|
#BPMCHANGE 133.8
|
|
0,
|
|
#BPMCHANGE 134.1
|
|
080000000000000000000000,
|
|
|
|
#BPMCHANGE 125.66
|
|
#SCROLL 1.02
|
|
00001111,
|
|
#BPMCHANGE 127.92
|
|
#SCROLL 1
|
|
20022000,
|
|
#BPMCHANGE 130.83
|
|
#SCROLL 0.98
|
|
00001111,
|
|
#MEASURE 2/4
|
|
#BPMCHANGE 131.71
|
|
#SCROLL 1
|
|
2022,
|
|
|
|
#MEASURE 4/4
|
|
#BPMCHANGE 130
|
|
1011200012112000,
|
|
1112010101011200, //10
|
|
|
|
1011210110112101,
|
|
1011210111201120,
|
|
1011210110112101,
|
|
1011210111201120,
|
|
#MEASURE 2/4
|
|
10111111,
|
|
|
|
#MEASURE 4/4
|
|
0011201100112011,
|
|
0011201110101010,
|
|
0011201100112011,
|
|
0011201110101010,
|
|
#MEASURE 2/4
|
|
10102211, //20
|
|
|
|
#MEASURE 4/4
|
|
1001112210000000,
|
|
1100220011002210,
|
|
1001112210000000,
|
|
1100220011103000,
|
|
|
|
1011210110112101,
|
|
1011210111201120,
|
|
1011210110112101,
|
|
1011210111201120,
|
|
#MEASURE 2/4
|
|
10222222, //29
|
|
|
|
#MEASURE 4/4
|
|
1001100110011020,
|
|
1001100110011221,
|
|
1001100110011020,
|
|
1001100112211221,
|
|
|
|
1001100110011020,
|
|
1001100110011221,
|
|
1001100112211012,
|
|
2110122110000000, //37
|
|
|
|
1020112010201120,
|
|
1020112010201120,
|
|
1020112010201120,
|
|
1020112011211121,
|
|
|
|
1020112010201120,
|
|
1020112010201120,
|
|
1020112010201120,
|
|
1121112111111111,
|
|
|
|
1011,
|
|
1010201210102012,
|
|
1010201212101110,
|
|
#MEASURE 2/4
|
|
3, //49
|
|
|
|
#MEASURE 4/4
|
|
1011210110112101,
|
|
1011210111201120,
|
|
1011210110112101,
|
|
1011210111201120,
|
|
#MEASURE 2/4
|
|
10111111,
|
|
|
|
#MEASURE 4/4
|
|
1011201110112011,
|
|
1011201110101010,
|
|
1011221110112211,
|
|
1011221110101010,
|
|
#MEASURE 2/4
|
|
10101111, //59
|
|
|
|
#MEASURE 4/4
|
|
1021120112011021,
|
|
1021120112011021,
|
|
1021120112011021,
|
|
1021120112022022,
|
|
|
|
1021120112011021,
|
|
1021120112011021,
|
|
2020020202002020,
|
|
1202220222020300, //67
|
|
|
|
1021120112011021,
|
|
1021120112011021,
|
|
1021120112011021,
|
|
1021120112020211,
|
|
|
|
1021120112011021,
|
|
1021120112011021,
|
|
0020110020110020,
|
|
1100201100100300, //75
|
|
|
|
1011210110112101,
|
|
1011210110003000,
|
|
1011210110112101,
|
|
1011210110003000,
|
|
|
|
1011210110003000,
|
|
1011210110003000,
|
|
1011210110003000,
|
|
1011110110000000,
|
|
0,
|
|
0, //85
|
|
#END
|
|
|
|
|
|
COURSE:Normal
|
|
LEVEL:6
|
|
|
|
STYLE:SINGLE
|
|
BALLOON:20
|
|
SCOREINIT:480
|
|
SCOREDIFF:110
|
|
|
|
#START
|
|
11,
|
|
#BPMCHANGE 126.65
|
|
1150,
|
|
#BPMCHANGE 133.8
|
|
0,
|
|
#BPMCHANGE 134.1
|
|
080000000000000000000000, //4
|
|
|
|
#BPMCHANGE 125.66
|
|
#SCROLL 1.02
|
|
00001111,
|
|
#BPMCHANGE 127.92
|
|
#SCROLL 1
|
|
1,
|
|
#BPMCHANGE 130.83
|
|
#SCROLL 0.98
|
|
10001111,
|
|
#MEASURE 2/4
|
|
#BPMCHANGE 131.71
|
|
#SCROLL 1
|
|
1,
|
|
|
|
#MEASURE 4/4
|
|
#BPMCHANGE 130
|
|
1000100010111000,
|
|
500000000000000000000008000000000000000100000000, //10
|
|
|
|
1011100010111000,
|
|
1011100010000000,
|
|
1011100010111000,
|
|
1011100010000000,
|
|
#MEASURE 2/4
|
|
3,
|
|
|
|
#MEASURE 4/4
|
|
02020202,
|
|
02021111,
|
|
02020202,
|
|
02021111,
|
|
#MEASURE 2/4
|
|
3, //20
|
|
|
|
#MEASURE 4/4
|
|
1001101010000000,
|
|
1212,
|
|
1001101010000000,
|
|
1211,
|
|
|
|
1011100010111000,
|
|
1011100010000000,
|
|
1011100010111000,
|
|
1011100010000000,
|
|
#MEASURE 2/4
|
|
3, //29
|
|
|
|
#MEASURE 4/4
|
|
1001100010011000,
|
|
1001100010011000,
|
|
1001100010011000,
|
|
1001100030000000,
|
|
|
|
1001100010011000,
|
|
1001100010011000,
|
|
1001100010000010,
|
|
0130, //37
|
|
|
|
1000101110001011,
|
|
1000101110001011,
|
|
1000101110001011,
|
|
1000101110002220,
|
|
|
|
1000101110001011,
|
|
1000101110001011,
|
|
1000101110001011,
|
|
100000000000100000000000500000000000008000000000,
|
|
|
|
3011,
|
|
1010101010101011,
|
|
11111010,
|
|
#MEASURE 2/4
|
|
3, //49
|
|
|
|
#MEASURE 4/4
|
|
1011100010111000,
|
|
1011100010000000,
|
|
1011100010111000,
|
|
1011100010000000,
|
|
#MEASURE 2/4
|
|
3,
|
|
|
|
#MEASURE 4/4
|
|
02020202,
|
|
02021111,
|
|
0020001100200011,
|
|
0020001110000000,
|
|
#MEASURE 2/4
|
|
500000000000008000000000, //59
|
|
|
|
#MEASURE 4/4
|
|
1000100010011010,
|
|
1000100010011010,
|
|
1000100010011010,
|
|
1000100010011020,
|
|
|
|
1000100010011010,
|
|
1000100010011010,
|
|
10000011,
|
|
1000100010100100, //67
|
|
|
|
1000100010011020,
|
|
1000100010011020,
|
|
1000100010011020,
|
|
1000100010022010,
|
|
|
|
1000100010011020,
|
|
1000100010011020,
|
|
7,
|
|
0000800000000100, //75
|
|
|
|
1011100010111000,
|
|
1011100010003000,
|
|
1011100010111000,
|
|
1011100010003000,
|
|
|
|
1011100010003000,
|
|
1011100010003000,
|
|
1011100010003000,
|
|
1011100030000000,
|
|
0,
|
|
0, //85
|
|
#END
|
|
|
|
STYLE:DOUBLE
|
|
BALLOON:20
|
|
SCOREINIT:560
|
|
SCOREDIFF:130
|
|
|
|
#START P1
|
|
11,
|
|
#BPMCHANGE 126.65
|
|
1150,
|
|
#BPMCHANGE 133.8
|
|
0,
|
|
#BPMCHANGE 134.1
|
|
080000000000000000000000, //4
|
|
|
|
#BPMCHANGE 125.66
|
|
#SCROLL 1.02
|
|
10001111,
|
|
#BPMCHANGE 127.92
|
|
#SCROLL 1
|
|
1,
|
|
#BPMCHANGE 130.83
|
|
#SCROLL 0.98
|
|
0202,
|
|
#MEASURE 2/4
|
|
#BPMCHANGE 131.71
|
|
#SCROLL 1
|
|
0,
|
|
|
|
#MEASURE 4/4
|
|
#BPMCHANGE 130
|
|
1000100010111000,
|
|
500000000000000000000008000000000000000100000000, //10
|
|
|
|
1011100010002000,
|
|
1011100010101000,
|
|
1000200010111000,
|
|
10201110,
|
|
#MEASURE 2/4
|
|
3,
|
|
|
|
#MEASURE 4/4
|
|
0020002200200022,
|
|
0020002200000000,
|
|
1011000010110000,
|
|
1011000010101010,
|
|
#MEASURE 2/4
|
|
3, //20
|
|
|
|
#MEASURE 4/4
|
|
1001101010000000,
|
|
1100000011000000,
|
|
0000000000001110,
|
|
0000220000001000,
|
|
|
|
1011100010002000,
|
|
1011100010101000,
|
|
1000200010111000,
|
|
10201110,
|
|
#MEASURE 2/4
|
|
3, //29
|
|
|
|
#MEASURE 4/4
|
|
1001100000002000,
|
|
1001100000002000,
|
|
1001100000002000,
|
|
1001100030000000,
|
|
|
|
0000200010011000,
|
|
0000200010011000,
|
|
1001100010000010,
|
|
00113000, //37
|
|
|
|
1010101110000000,
|
|
1010101110000000,
|
|
1010101110000000,
|
|
1010101110002220,
|
|
|
|
0000000010101011,
|
|
1000000010101011,
|
|
1000000010101011,
|
|
100000100000500000080000,
|
|
|
|
3011,
|
|
1110000011100000,
|
|
2220000010103000,
|
|
#MEASURE 2/4
|
|
0, //49
|
|
|
|
#MEASURE 4/4
|
|
1011100010002000,
|
|
1011100010101000,
|
|
1000200010111000,
|
|
10201110,
|
|
#MEASURE 2/4
|
|
3,
|
|
|
|
#MEASURE 4/4
|
|
1011000010110000,
|
|
1011000010101010,
|
|
0020002200200022,
|
|
0020002200000000,
|
|
#MEASURE 2/4
|
|
500000080000, //59
|
|
|
|
#MEASURE 4/4
|
|
1000100010011010,
|
|
00002200,
|
|
1000100010011010,
|
|
00002200,
|
|
|
|
1000100010011010,
|
|
00002200,
|
|
11101010,
|
|
1000100010100100, //67
|
|
|
|
02001200,
|
|
1000100010011000,
|
|
02001200,
|
|
1000100010011000,
|
|
|
|
02001200,
|
|
1000100010011000,
|
|
7,
|
|
0000000080000100, //75
|
|
|
|
1011100010002000,
|
|
1011100010003000,
|
|
1000200010111000,
|
|
1213,
|
|
|
|
1011110110003000,
|
|
1213,
|
|
1011110110003000,
|
|
1011110110000000,
|
|
0,
|
|
0, //85
|
|
#END
|
|
|
|
BALLOON:20
|
|
SCOREINIT:560
|
|
SCOREDIFF:130
|
|
|
|
#START P2
|
|
11,
|
|
#BPMCHANGE 126.65
|
|
1150,
|
|
#BPMCHANGE 133.8
|
|
0,
|
|
#BPMCHANGE 134.1
|
|
080000000000000000000000, //4
|
|
|
|
#BPMCHANGE 125.66
|
|
#SCROLL 1.02
|
|
0202,
|
|
#BPMCHANGE 127.92
|
|
#SCROLL 1
|
|
0202,
|
|
#BPMCHANGE 130.83
|
|
#SCROLL 0.98
|
|
10001111,
|
|
#MEASURE 2/4
|
|
#BPMCHANGE 131.71
|
|
#SCROLL 1
|
|
1,
|
|
|
|
#MEASURE 4/4
|
|
#BPMCHANGE 130
|
|
1000100010111000,
|
|
500000000000000000000008000000000000000100000000, //10
|
|
|
|
1000200010111000,
|
|
10201110,
|
|
1011100010002000,
|
|
1011100010101000,
|
|
#MEASURE 2/4
|
|
3,
|
|
|
|
#MEASURE 4/4
|
|
1011000010110000,
|
|
1011000010101010,
|
|
0020002200200022,
|
|
0020002200000000,
|
|
#MEASURE 2/4
|
|
3, //20
|
|
|
|
#MEASURE 4/4
|
|
0000000000001110,
|
|
0000220000002200,
|
|
1001101010000000,
|
|
1100000011001000,
|
|
|
|
1000200010111000,
|
|
10201110,
|
|
1011100010002000,
|
|
1011100010101000,
|
|
#MEASURE 2/4
|
|
3, //29
|
|
|
|
#MEASURE 4/4
|
|
0000200010011000,
|
|
0000200010011000,
|
|
0000200010011000,
|
|
1001100030000000,
|
|
|
|
1001100000002000,
|
|
1001100000002000,
|
|
1001100010000010,
|
|
00113000, //37
|
|
|
|
0000000010101011,
|
|
1000000010101011,
|
|
1000000010101011,
|
|
1000000000002220,
|
|
|
|
1010101110000000,
|
|
1010101110000000,
|
|
1010101110000000,
|
|
000000100000500000080000,
|
|
|
|
3011,
|
|
0000111000001110,
|
|
0000222010103000,
|
|
#MEASURE 2/4
|
|
0, //49
|
|
|
|
#MEASURE 4/4
|
|
1000200010111000,
|
|
10201110,
|
|
1011100010002000,
|
|
1011100010101000,
|
|
#MEASURE 2/4
|
|
3,
|
|
|
|
#MEASURE 4/4
|
|
0020002200200022,
|
|
0020002200000000,
|
|
1011000010110000,
|
|
1011000010101010,
|
|
#MEASURE 2/4
|
|
500000080000, //59
|
|
|
|
#MEASURE 4/4
|
|
00002200,
|
|
1000100010011010,
|
|
00002200,
|
|
1000100010011000,
|
|
|
|
00002200,
|
|
1000100010011010,
|
|
11101010,
|
|
1000100010100100, //67
|
|
|
|
1000100010011000,
|
|
02001200,
|
|
1000100010011000,
|
|
02001200,
|
|
|
|
1000100010011000,
|
|
20001200,
|
|
7,
|
|
0000000080000100, //75
|
|
|
|
1000200010111000,
|
|
1213,
|
|
1011100010002000,
|
|
1011100010003000,
|
|
|
|
1213,
|
|
1011110110003000,
|
|
1213,
|
|
1011110110000000,
|
|
0,
|
|
0, //85
|
|
#END
|
|
|
|
|
|
COURSE:Easy
|
|
LEVEL:4
|
|
|
|
STYLE:SINGLE
|
|
BALLOON:
|
|
SCOREINIT:610
|
|
SCOREDIFF:150
|
|
|
|
#START
|
|
33,
|
|
#BPMCHANGE 126.65
|
|
1150,
|
|
#BPMCHANGE 133.8
|
|
0,
|
|
#BPMCHANGE 134.1
|
|
080000000000000000000000, //4
|
|
|
|
#BPMCHANGE 125.66
|
|
#SCROLL 1.02
|
|
12,
|
|
#BPMCHANGE 127.92
|
|
#SCROLL 1
|
|
11002000,
|
|
#BPMCHANGE 130.83
|
|
#SCROLL 0.98
|
|
12,
|
|
#MEASURE 2/4
|
|
#BPMCHANGE 131.71
|
|
#SCROLL 1
|
|
1100,
|
|
|
|
#MEASURE 4/4
|
|
#BPMCHANGE 130
|
|
500000000000000000000000000000000000000000000008,
|
|
0, //10
|
|
|
|
10101011,
|
|
10111000,
|
|
10101011,
|
|
10111000,
|
|
#MEASURE 2/4
|
|
0,
|
|
|
|
#MEASURE 4/4
|
|
0000110000001100,
|
|
00001111,
|
|
0000220000002200,
|
|
00001111,
|
|
#MEASURE 2/4
|
|
0, //20
|
|
|
|
#MEASURE 4/4
|
|
12,
|
|
1100000022000000,
|
|
12,
|
|
1100000022000000,
|
|
|
|
10101011,
|
|
10111000,
|
|
10101011,
|
|
10111000,
|
|
#MEASURE 2/4
|
|
0, //29
|
|
|
|
#MEASURE 4/4
|
|
1000000011000000,
|
|
1000000011000000,
|
|
1000000022000011,
|
|
1001000000000000,
|
|
|
|
1000000011000000,
|
|
1000000011000000,
|
|
10001110,
|
|
0, //37
|
|
|
|
11020000,
|
|
11020000,
|
|
11001100,
|
|
11000000,
|
|
|
|
11020000,
|
|
11020000,
|
|
11001100,
|
|
500000000000000000000000000000000000000000000008,
|
|
|
|
0033,
|
|
1200,
|
|
1210,
|
|
#MEASURE 2/4
|
|
0, //49
|
|
|
|
#MEASURE 4/4
|
|
10111011,
|
|
10111000,
|
|
10111011,
|
|
10111000,
|
|
#MEASURE 2/4
|
|
0,
|
|
|
|
#MEASURE 4/4
|
|
0000110000001100,
|
|
00001111,
|
|
0000110000001100,
|
|
00001111,
|
|
#MEASURE 2/4
|
|
0, //59
|
|
|
|
#MEASURE 4/4
|
|
11,
|
|
11001000,
|
|
11,
|
|
11001000,
|
|
|
|
11,
|
|
2220,
|
|
0,
|
|
10101100, //67
|
|
|
|
11,
|
|
11002000,
|
|
11,
|
|
11002000,
|
|
|
|
1212,
|
|
1212,
|
|
1000000010010010,
|
|
0100100000000000, //75
|
|
|
|
10111010,
|
|
10111000,
|
|
10111010,
|
|
10111000,
|
|
|
|
10111030,
|
|
10111030,
|
|
10111030,
|
|
1130,
|
|
0,
|
|
0, //85
|
|
#END
|
|
|
|
STYLE:DOUBLE
|
|
BALLOON:
|
|
SCOREINIT:700
|
|
SCOREDIFF:180
|
|
|
|
#START P1
|
|
33,
|
|
#BPMCHANGE 126.65
|
|
3350,
|
|
#BPMCHANGE 133.8
|
|
0,
|
|
#BPMCHANGE 134.1
|
|
080000000000000000000000, //4
|
|
|
|
#BPMCHANGE 125.66
|
|
#SCROLL 1.02
|
|
12,
|
|
#BPMCHANGE 127.92
|
|
#SCROLL 1
|
|
11002000,
|
|
#BPMCHANGE 130.83
|
|
#SCROLL 0.98
|
|
0,
|
|
#MEASURE 2/4
|
|
#BPMCHANGE 131.71
|
|
#SCROLL 1
|
|
0,
|
|
|
|
#MEASURE 4/4
|
|
#BPMCHANGE 130
|
|
500000000000000000000000000000000000000000000008,
|
|
0, //10
|
|
|
|
10111000,
|
|
10111010,
|
|
10001011,
|
|
1011,
|
|
#MEASURE 2/4
|
|
0,
|
|
|
|
#MEASURE 4/4
|
|
11,
|
|
10001111,
|
|
0000110000001100,
|
|
00001111,
|
|
#MEASURE 2/4
|
|
1, //20
|
|
|
|
#MEASURE 4/4
|
|
12,
|
|
1,
|
|
12,
|
|
1,
|
|
|
|
10111000,
|
|
10111010,
|
|
10001011,
|
|
1011,
|
|
#MEASURE 2/4
|
|
0, //29
|
|
|
|
#MEASURE 4/4
|
|
11020000,
|
|
10001100,
|
|
1010002000000011,
|
|
1001000000000000,
|
|
|
|
10001100,
|
|
11020000,
|
|
10101110,
|
|
0, //37
|
|
|
|
11020000,
|
|
11020000,
|
|
11020000,
|
|
11000000,
|
|
|
|
00001102,
|
|
00001102,
|
|
00001102,
|
|
500000000000000000000000000000000000000000000008,
|
|
|
|
0033,
|
|
1200,
|
|
1200,
|
|
#MEASURE 2/4
|
|
0, //49
|
|
|
|
#MEASURE 4/4
|
|
10111000,
|
|
10111010,
|
|
10001011,
|
|
1011,
|
|
#MEASURE 2/4
|
|
0,
|
|
|
|
#MEASURE 4/4
|
|
11,
|
|
10001111,
|
|
0000110000001100,
|
|
0000110010101010,
|
|
#MEASURE 2/4
|
|
1, //59
|
|
|
|
#MEASURE 4/4
|
|
11,
|
|
11001000,
|
|
00001100,
|
|
10002200,
|
|
|
|
11,
|
|
1110,
|
|
0,
|
|
10101100, //67
|
|
|
|
11020000,
|
|
22000000,
|
|
11020000,
|
|
22000000,
|
|
|
|
11020000,
|
|
22000000,
|
|
0000000010010010,
|
|
0100100000000000, //75
|
|
|
|
10111000,
|
|
10111000,
|
|
10001011,
|
|
11,
|
|
|
|
10111030,
|
|
0,
|
|
10111030,
|
|
10113000,
|
|
0,
|
|
0, //85
|
|
#END
|
|
|
|
BALLOON:
|
|
SCOREINIT:700
|
|
SCOREDIFF:180
|
|
|
|
#START P2
|
|
33,
|
|
#BPMCHANGE 126.65
|
|
3350,
|
|
#BPMCHANGE 133.8
|
|
0,
|
|
#BPMCHANGE 134.1
|
|
080000000000000000000000, //4
|
|
|
|
#BPMCHANGE 125.66
|
|
#SCROLL 1.02
|
|
0,
|
|
#BPMCHANGE 127.92
|
|
#SCROLL 1
|
|
0,
|
|
#BPMCHANGE 130.83
|
|
#SCROLL 0.98
|
|
12,
|
|
#MEASURE 2/4
|
|
#BPMCHANGE 131.71
|
|
#SCROLL 1
|
|
1100,
|
|
|
|
#MEASURE 4/4
|
|
#BPMCHANGE 130
|
|
500000000000000000000000000000000000000000000008,
|
|
0, //10
|
|
|
|
10001011,
|
|
1011,
|
|
10111000,
|
|
10111010,
|
|
#MEASURE 2/4
|
|
0,
|
|
|
|
#MEASURE 4/4
|
|
0000110000001100,
|
|
00001111,
|
|
11,
|
|
10001111,
|
|
#MEASURE 2/4
|
|
1, //20
|
|
|
|
#MEASURE 4/4
|
|
1,
|
|
1100000022000000,
|
|
1,
|
|
1100000022000000,
|
|
|
|
10001011,
|
|
1011,
|
|
10111000,
|
|
10111010,
|
|
#MEASURE 2/4
|
|
0, //29
|
|
|
|
#MEASURE 4/4
|
|
10001100,
|
|
11020000,
|
|
1000000010100011,
|
|
1001000000000000,
|
|
|
|
11020000,
|
|
10001100,
|
|
10101110,
|
|
0, //37
|
|
|
|
00001102,
|
|
00001102,
|
|
00001102,
|
|
00001100,
|
|
|
|
11020000,
|
|
11020000,
|
|
11020000,
|
|
500000000000000000000000000000000000000000000008,
|
|
|
|
0033,
|
|
0012,
|
|
0012,
|
|
#MEASURE 2/4
|
|
0, //49
|
|
|
|
#MEASURE 4/4
|
|
00001011,
|
|
1011,
|
|
10111000,
|
|
10111010,
|
|
#MEASURE 2/4
|
|
0,
|
|
|
|
#MEASURE 4/4
|
|
0000110000001100,
|
|
0000110010101010,
|
|
11,
|
|
10001111,
|
|
#MEASURE 2/4
|
|
1, //59
|
|
|
|
#MEASURE 4/4
|
|
00001100,
|
|
10002200,
|
|
11,
|
|
11001000,
|
|
|
|
11,
|
|
1110,
|
|
0,
|
|
10101100, //67
|
|
|
|
00001102,
|
|
00002200,
|
|
00001102,
|
|
00002200,
|
|
|
|
00001102,
|
|
00002200,
|
|
0000000010010010,
|
|
0100100000000000, //75
|
|
|
|
10001011,
|
|
11,
|
|
10111000,
|
|
10111000,
|
|
|
|
0,
|
|
10111030,
|
|
0,
|
|
10113000,
|
|
0,
|
|
0, //85
|
|
#END |