657 lines
5.8 KiB
Plaintext
657 lines
5.8 KiB
Plaintext
//TJADB Project
|
||
TITLE:Kanashiki Soukyuu o Kakeru
|
||
TITLEJA:悲しき蒼穹を翔ける
|
||
SUBTITLE:--Falcom Sound Team jdk/Gurumin: A Monstrous Adventure
|
||
SUBTITLEJA:「ぐるみん」より
|
||
BPM:140
|
||
WAVE:Kanashiki Soukyuu o Kakeru.ogg
|
||
OFFSET:-1.947
|
||
DEMOSTART:84.232
|
||
|
||
|
||
COURSE:Oni
|
||
LEVEL:8
|
||
BALLOON:8,8,8,8,8,15
|
||
SCOREINIT:380,1190
|
||
SCOREDIFF:90
|
||
|
||
#START
|
||
#MEASURE 3/4
|
||
101101101010,
|
||
201101101000,
|
||
101101101010,
|
||
201101101000,
|
||
|
||
101101101010,
|
||
#BPMCHANGE 141.22
|
||
201101101000,
|
||
#BPMCHANGE 139.4
|
||
101101101010,
|
||
201101101000,
|
||
|
||
#BPMCHANGE 140
|
||
202202202020,
|
||
101100111010,
|
||
#BPMCHANGE 140.41
|
||
202202202020,
|
||
101101101010,
|
||
|
||
#BPMCHANGE 140
|
||
202202202020,
|
||
101101101010,
|
||
202202202020,
|
||
101101101010,
|
||
|
||
400101201011,
|
||
200101201011,
|
||
200101201011,
|
||
200101201011,
|
||
|
||
200101201011,
|
||
200101201011,
|
||
200101201011,
|
||
200101201011,
|
||
|
||
202101202020,
|
||
101100111010,
|
||
202101202020,
|
||
101101101010,
|
||
|
||
202101202020,
|
||
101101101010,
|
||
202101202020,
|
||
101101101010,
|
||
|
||
401112222020,
|
||
300301201010,
|
||
300301202020,
|
||
300300101020,
|
||
|
||
301112222020,
|
||
300301201010,
|
||
300301201010,
|
||
708,
|
||
|
||
301112222020,
|
||
300301201010,
|
||
300301201010,
|
||
300300101020,
|
||
|
||
301112222020,
|
||
300301201010,
|
||
300301201010,
|
||
708,
|
||
|
||
101110102020,
|
||
120101101000,
|
||
101110102020,
|
||
708,
|
||
|
||
101110102020,
|
||
120101101000,
|
||
101110102020,
|
||
102022221110,
|
||
|
||
101112222020,
|
||
400301201010,
|
||
400301201010,
|
||
708,
|
||
|
||
301112222020,
|
||
400301201010,
|
||
400301201010,
|
||
708,
|
||
|
||
102220221021,
|
||
100101202210,
|
||
400333,
|
||
300000001110,
|
||
|
||
222220202210,
|
||
200210201110,
|
||
100120101022,
|
||
104040111111,
|
||
|
||
102220221021,
|
||
100101202210,
|
||
400000221010,
|
||
300000111,
|
||
|
||
200022101011,
|
||
200210202210,
|
||
100120101210,
|
||
101110101122,
|
||
|
||
#GOGOSTART
|
||
101120101110,
|
||
101120101110,
|
||
101120101011,
|
||
100000001122,
|
||
|
||
101120101110,
|
||
101120111010,
|
||
121212121212,
|
||
104040001122,
|
||
|
||
201120101110,
|
||
101120101110,
|
||
101120101011,
|
||
100000002011,
|
||
|
||
200010111110,
|
||
201120202210,
|
||
7,
|
||
000080001122,
|
||
|
||
101120101122,
|
||
101120101122,
|
||
101120101011,
|
||
100000001122,
|
||
|
||
101120101122,
|
||
101120102210,
|
||
121212121212,
|
||
104040001122,
|
||
|
||
101120102211,
|
||
101120102211,
|
||
101120102011,
|
||
100000002210,
|
||
|
||
400010111110,
|
||
202210202210,
|
||
111000000000,
|
||
221122112121,
|
||
#GOGOEND
|
||
|
||
1,
|
||
0,
|
||
0,
|
||
0,
|
||
#END
|
||
|
||
|
||
COURSE:Hard
|
||
LEVEL:6
|
||
BALLOON:7,7,7,7,7,7,7,10,13
|
||
SCOREINIT:480,1770
|
||
SCOREDIFF:108
|
||
|
||
#START
|
||
#MEASURE 3/4
|
||
101100101000,
|
||
101100101000,
|
||
101100101000,
|
||
101100101000,
|
||
|
||
101100101000,
|
||
#BPMCHANGE 141.22
|
||
101100101000,
|
||
#BPMCHANGE 139.4
|
||
101100101000,
|
||
101100101000,
|
||
|
||
#BPMCHANGE 140
|
||
202200202000,
|
||
101100101000,
|
||
#BPMCHANGE 140.41
|
||
202200202000,
|
||
101100101000,
|
||
|
||
#BPMCHANGE 140
|
||
202200202000,
|
||
101100101000,
|
||
202200202000,
|
||
101100101000,
|
||
|
||
100201101000,
|
||
100201101000,
|
||
100201101000,
|
||
100201101000,
|
||
|
||
100201101000,
|
||
100201101000,
|
||
100201101000,
|
||
708,
|
||
|
||
202200202020,
|
||
101100101010,
|
||
202200202020,
|
||
101100101010,
|
||
|
||
202200202020,
|
||
101100101010,
|
||
202200202020,
|
||
101100101010,
|
||
|
||
101110101000,
|
||
300300001000,
|
||
300300001000,
|
||
3,
|
||
|
||
101110101000,
|
||
300300001000,
|
||
300300001000,
|
||
708,
|
||
|
||
101110101000,
|
||
300300001000,
|
||
300300001000,
|
||
3,
|
||
|
||
101110101000,
|
||
300300001000,
|
||
300300001000,
|
||
708,
|
||
|
||
101110102020,
|
||
400300001000,
|
||
101110102020,
|
||
708,
|
||
|
||
101110102020,
|
||
400301101000,
|
||
101110102020,
|
||
500000000000000000000000000008000000,
|
||
|
||
101110101000,
|
||
300400001000,
|
||
300400001000,
|
||
3,
|
||
|
||
101110101000,
|
||
300400001000,
|
||
300400001000,
|
||
708,
|
||
|
||
102220222011,
|
||
100100000000,
|
||
300000303030,
|
||
3,
|
||
|
||
708,
|
||
400011101000,
|
||
100110101000,
|
||
708,
|
||
|
||
102220222011,
|
||
100101101000,
|
||
300333,
|
||
300000111,
|
||
|
||
100000000022,
|
||
200222,
|
||
9009,
|
||
8,
|
||
|
||
#GOGOSTART
|
||
101110001010,
|
||
101110001010,
|
||
101110001010,
|
||
1,
|
||
|
||
101110001010,
|
||
101110001010,
|
||
111011101110,
|
||
104040000000,
|
||
|
||
101110001010,
|
||
101110001010,
|
||
101110001010,
|
||
1,
|
||
|
||
400011,
|
||
44,
|
||
7,
|
||
080,
|
||
|
||
101110002020,
|
||
101110002020,
|
||
101110102020,
|
||
1,
|
||
|
||
101110002020,
|
||
101110002020,
|
||
111011101110,
|
||
144000,
|
||
|
||
101110002020,
|
||
101110002020,
|
||
101110102020,
|
||
1,
|
||
|
||
400011,
|
||
44,
|
||
111000000000,
|
||
111011101111,
|
||
#GOGOEND
|
||
|
||
1,
|
||
0,
|
||
0,
|
||
0,
|
||
#END
|
||
|
||
|
||
COURSE:Normal
|
||
LEVEL:4
|
||
BALLOON:5,5,5,5,5,5,5,8,12,7
|
||
SCOREINIT:730,3960
|
||
SCOREDIFF:205
|
||
|
||
#START
|
||
#MEASURE 3/4
|
||
11,
|
||
11,
|
||
11,
|
||
1,
|
||
|
||
11,
|
||
#BPMCHANGE 141.22
|
||
11,
|
||
#BPMCHANGE 139.4
|
||
11,
|
||
1,
|
||
|
||
#BPMCHANGE 140
|
||
202,
|
||
101,
|
||
#BPMCHANGE 140.41
|
||
202,
|
||
1,
|
||
|
||
#BPMCHANGE 140
|
||
202,
|
||
101,
|
||
202,
|
||
1,
|
||
|
||
11,
|
||
11,
|
||
11,
|
||
1,
|
||
|
||
22,
|
||
22,
|
||
22,
|
||
708,
|
||
|
||
202,
|
||
101,
|
||
202,
|
||
1,
|
||
|
||
202,
|
||
101,
|
||
202,
|
||
1,
|
||
|
||
111,
|
||
3,
|
||
3,
|
||
3,
|
||
|
||
111,
|
||
3,
|
||
3,
|
||
708,
|
||
|
||
111,
|
||
3,
|
||
3,
|
||
3,
|
||
|
||
111,
|
||
3,
|
||
3,
|
||
708,
|
||
|
||
222,
|
||
4,
|
||
222,
|
||
708,
|
||
|
||
222,
|
||
4,
|
||
222,
|
||
500000000000000000000008000000000000,
|
||
|
||
111,
|
||
300300000000,
|
||
300300000000,
|
||
300300000000,
|
||
|
||
111,
|
||
300300000000,
|
||
300300000000,
|
||
708,
|
||
|
||
222,
|
||
2,
|
||
33,
|
||
3,
|
||
|
||
708,
|
||
443,
|
||
3,
|
||
708,
|
||
|
||
222,
|
||
300300000000,
|
||
33,
|
||
302,
|
||
|
||
200002,
|
||
200222,
|
||
9009,
|
||
8,
|
||
|
||
#GOGOSTART
|
||
111,
|
||
1,
|
||
111,
|
||
1,
|
||
|
||
111,
|
||
1,
|
||
500000000000000000000000000000000008,
|
||
0,
|
||
|
||
111,
|
||
1,
|
||
111,
|
||
1,
|
||
|
||
4,
|
||
44,
|
||
7,
|
||
008,
|
||
|
||
101011,
|
||
101011,
|
||
101011,
|
||
1,
|
||
|
||
101011,
|
||
101011,
|
||
500000000000000000000000000000000008,
|
||
0,
|
||
|
||
101011,
|
||
101011,
|
||
101011,
|
||
1,
|
||
|
||
4,
|
||
44,
|
||
3,
|
||
7,
|
||
#GOGOEND
|
||
|
||
8,
|
||
0,
|
||
0,
|
||
0,
|
||
#END
|
||
|
||
|
||
COURSE:Easy
|
||
LEVEL:2
|
||
BALLOON:4,4,4,4,4,4,4,6,10,5
|
||
SCOREINIT:570,5350
|
||
SCOREDIFF:168
|
||
|
||
#START
|
||
#MEASURE 3/4
|
||
1,
|
||
1,
|
||
1,
|
||
1,
|
||
|
||
1,
|
||
#BPMCHANGE 141.22
|
||
1,
|
||
#BPMCHANGE 139.4
|
||
1,
|
||
1,
|
||
|
||
#BPMCHANGE 140
|
||
2,
|
||
2,
|
||
#BPMCHANGE 140.41
|
||
2,
|
||
2,
|
||
|
||
#BPMCHANGE 140
|
||
1,
|
||
1,
|
||
1,
|
||
1,
|
||
|
||
11,
|
||
1,
|
||
11,
|
||
1,
|
||
|
||
11,
|
||
1,
|
||
11,
|
||
708,
|
||
|
||
2,
|
||
1,
|
||
2,
|
||
1,
|
||
|
||
2,
|
||
1,
|
||
2,
|
||
1,
|
||
|
||
101,
|
||
3,
|
||
3,
|
||
3,
|
||
|
||
101,
|
||
3,
|
||
3,
|
||
708,
|
||
|
||
101,
|
||
3,
|
||
3,
|
||
3,
|
||
|
||
101,
|
||
3,
|
||
3,
|
||
708,
|
||
|
||
111,
|
||
3,
|
||
111,
|
||
708,
|
||
|
||
111,
|
||
3,
|
||
111,
|
||
3,
|
||
|
||
101,
|
||
3,
|
||
3,
|
||
3,
|
||
|
||
101,
|
||
3,
|
||
3,
|
||
708,
|
||
|
||
111,
|
||
1,
|
||
33,
|
||
3,
|
||
|
||
708,
|
||
303,
|
||
3,
|
||
708,
|
||
|
||
111,
|
||
1,
|
||
33,
|
||
3,
|
||
|
||
3,
|
||
4,
|
||
9009,
|
||
8,
|
||
|
||
#GOGOSTART
|
||
110,
|
||
110,
|
||
110,
|
||
1,
|
||
|
||
110,
|
||
110,
|
||
500000000000000000000000000000000008,
|
||
0,
|
||
|
||
110,
|
||
110,
|
||
110,
|
||
1,
|
||
|
||
3,
|
||
33,
|
||
7,
|
||
008,
|
||
|
||
220,
|
||
220,
|
||
220,
|
||
2,
|
||
|
||
220,
|
||
220,
|
||
500000000000000000000000000000000008,
|
||
0,
|
||
|
||
110,
|
||
110,
|
||
110,
|
||
1,
|
||
|
||
3,
|
||
33,
|
||
3,
|
||
7,
|
||
#GOGOEND
|
||
|
||
8,
|
||
0,
|
||
0,
|
||
0,
|
||
#END |