524 lines
5.8 KiB
Plaintext
524 lines
5.8 KiB
Plaintext
//TJADB Project
|
|
TITLE:MEGARE!
|
|
TITLEJA:MEGARE!
|
|
SUBTITLE:--Ryuichi Takada/THE iDOLM@STER 2
|
|
SUBTITLEJA:
|
|
BPM:180
|
|
WAVE:MEGARE.ogg
|
|
OFFSET:-2.778
|
|
DEMOSTART:78.777
|
|
SCENEPRESET:IMAS
|
|
|
|
|
|
COURSE:Oni
|
|
LEVEL:7
|
|
BALLOON:
|
|
SCOREINIT:520,1660
|
|
SCOREDIFF:138
|
|
NOTESDESIGNER3:Kuboken
|
|
|
|
#START
|
|
1010201011102010,
|
|
01211020,
|
|
1022201000102010,
|
|
01204242,
|
|
|
|
2010102011102010,
|
|
01211020,
|
|
1022201020002020,
|
|
0011101010404000, //8
|
|
|
|
#GOGOSTART
|
|
1110100010201000,
|
|
1110100010001020,
|
|
1110100010201000,
|
|
1110100010001020,
|
|
|
|
1110100010201000,
|
|
1110111011101110,
|
|
600000000000000000000000000000000008000000000000,
|
|
33303040, //16
|
|
#GOGOEND
|
|
|
|
11012112,
|
|
11012110,
|
|
10012012,
|
|
11012000,
|
|
|
|
40012112,
|
|
11012112,
|
|
11212121,
|
|
12202222, //24
|
|
|
|
11012110,
|
|
11012110,
|
|
11201120,
|
|
11201000,
|
|
|
|
11012110,
|
|
11012110,
|
|
11221122,
|
|
11102240, //32
|
|
|
|
11212112,
|
|
11212112,
|
|
11221122,
|
|
11212002,
|
|
|
|
11212112,
|
|
11212112,
|
|
11201120,
|
|
11102222, //40
|
|
|
|
10211020,
|
|
10211021,
|
|
20211220,
|
|
10211020,
|
|
|
|
10112020,
|
|
10112020,
|
|
500000000000000000000008000000000000200000000000,
|
|
1012, //48
|
|
|
|
10211020,
|
|
10211021,
|
|
20211220,
|
|
10211021,
|
|
|
|
01221121,
|
|
01221121,
|
|
2131,
|
|
3130,
|
|
2020202000222220, //57
|
|
|
|
1010201011102010,
|
|
01211020,
|
|
1022201000102010,
|
|
01204242,
|
|
|
|
2010102011102010,
|
|
01211020,
|
|
1022201020001040,
|
|
000000500000000000000000000000000008000000000000, //65
|
|
|
|
1010201011102010,
|
|
01211020,
|
|
1022201000102010,
|
|
01204242,
|
|
|
|
2010102011102010,
|
|
01211020,
|
|
1022201020002020,
|
|
0011101010404000, //73
|
|
|
|
#GOGOSTART
|
|
1110100010201000,
|
|
1110100010001020,
|
|
1110100010201000,
|
|
1110100010001020,
|
|
|
|
1110100010201000,
|
|
1110111011101110,
|
|
600000000000000000000000000000000008000000000000,
|
|
#GOGOEND
|
|
04400440, //81
|
|
|
|
#GOGOSTART
|
|
1110100010201000,
|
|
1110100010001020,
|
|
1110100010201000,
|
|
1110100010001020,
|
|
|
|
1110100010201000,
|
|
1110111011101110,
|
|
600000000000000000000000000000000008000000000000,
|
|
33304444, //89
|
|
#GOGOEND
|
|
|
|
0, //90
|
|
#END
|
|
|
|
|
|
COURSE:Hard
|
|
LEVEL:4
|
|
BALLOON:8
|
|
SCOREINIT:490,2220
|
|
SCOREDIFF:133
|
|
|
|
#START
|
|
11101011,
|
|
01101010,
|
|
11220101,
|
|
01104040,
|
|
|
|
11101011,
|
|
01101010,
|
|
11202022,
|
|
01111220,
|
|
|
|
#GOGOSTART
|
|
30111010,
|
|
30111020,
|
|
30111010,
|
|
30111020,
|
|
|
|
30111010,
|
|
30111020,
|
|
600000000000000000000000000000000008000000000000,
|
|
33303040,
|
|
#GOGOEND
|
|
|
|
02,
|
|
02,
|
|
02,
|
|
02,
|
|
|
|
42,
|
|
42,
|
|
40202222,
|
|
70000800,
|
|
|
|
10012020,
|
|
10102020,
|
|
10102020,
|
|
11102000,
|
|
|
|
10012020,
|
|
10102020,
|
|
11102220,
|
|
11101122,
|
|
|
|
10112020,
|
|
10112020,
|
|
10112020,
|
|
11102002,
|
|
|
|
10112020,
|
|
10112020,
|
|
11102220,
|
|
11101122,
|
|
|
|
10011020,
|
|
10011020,
|
|
10011020,
|
|
10011020,
|
|
|
|
10111020,
|
|
10111020,
|
|
500000000000000000000008000000000000200000000000,
|
|
1012,
|
|
|
|
10211020,
|
|
10211022,
|
|
10211220,
|
|
10211011,
|
|
|
|
10221011,
|
|
10221011,
|
|
1131,
|
|
3130,
|
|
22220000,
|
|
|
|
11201021,
|
|
01221010,
|
|
11220101,
|
|
01104040,
|
|
|
|
11201021,
|
|
01221010,
|
|
11202014,
|
|
000000600000000000000000000000000008000000000000,
|
|
|
|
11201021,
|
|
01221010,
|
|
11220101,
|
|
01104040,
|
|
|
|
11201021,
|
|
01221010,
|
|
11202022,
|
|
01111220,
|
|
|
|
#GOGOSTART
|
|
30111010,
|
|
30111020,
|
|
30111010,
|
|
30111020,
|
|
|
|
30111010,
|
|
30111020,
|
|
600000000000000000000000000000000008000000000000,
|
|
#GOGOEND
|
|
02200220,
|
|
|
|
#GOGOSTART
|
|
30111010,
|
|
30111020,
|
|
30111010,
|
|
30111020,
|
|
|
|
30111010,
|
|
30111020,
|
|
600000000000000000000000000000000008000000000000,
|
|
33303333,
|
|
#GOGOEND
|
|
|
|
0,
|
|
#END
|
|
|
|
|
|
COURSE:Normal
|
|
LEVEL:4
|
|
BALLOON:6
|
|
SCOREINIT:510,2950
|
|
SCOREDIFF:153
|
|
|
|
#START
|
|
0101,
|
|
0111,
|
|
0101,
|
|
0144,
|
|
|
|
0101,
|
|
0111,
|
|
0101,
|
|
0111,
|
|
|
|
#GOGOSTART
|
|
3334,
|
|
3334,
|
|
3334,
|
|
3334,
|
|
|
|
3334,
|
|
3334,
|
|
600000000000000000000000000000000008000000000000,
|
|
3334,
|
|
#GOGOEND
|
|
|
|
02,
|
|
02,
|
|
02,
|
|
02,
|
|
|
|
42,
|
|
42,
|
|
4222,
|
|
70000800,
|
|
|
|
12,
|
|
12,
|
|
1120,
|
|
1120,
|
|
|
|
12,
|
|
12,
|
|
1122,
|
|
1002,
|
|
|
|
12,
|
|
12,
|
|
1120,
|
|
1120,
|
|
|
|
12,
|
|
12,
|
|
1122,
|
|
1,
|
|
|
|
500000000000000000000008000000000000200000000000,
|
|
500000000000000000000008000000000000200000000000,
|
|
500000000000000000000008000000000000200000000000,
|
|
500000000000000000000008000000000000200000000000,
|
|
|
|
500000000000000000000008000000000000200000000000,
|
|
500000000000000000000008000000000000200000000000,
|
|
500000000000000000000008000000000000200000000000,
|
|
1012,
|
|
|
|
10011020,
|
|
10011020,
|
|
10011020,
|
|
10011020,
|
|
|
|
1111,
|
|
2222,
|
|
1131,
|
|
3130,
|
|
22220000,
|
|
|
|
0101,
|
|
0111,
|
|
0101,
|
|
0144,
|
|
|
|
0101,
|
|
0111,
|
|
0101,
|
|
000000600000000000000000000000000008000000000000,
|
|
|
|
0101,
|
|
0111,
|
|
0101,
|
|
0144,
|
|
|
|
0101,
|
|
0111,
|
|
0101,
|
|
0111,
|
|
|
|
#GOGOSTART
|
|
3334,
|
|
3334,
|
|
3334,
|
|
3334,
|
|
|
|
3334,
|
|
3334,
|
|
600000000000000000000000000000000008000000000000,
|
|
#GOGOEND
|
|
0,
|
|
|
|
#GOGOSTART
|
|
3434,
|
|
3433,
|
|
3434,
|
|
3433,
|
|
|
|
3434,
|
|
3433,
|
|
600000000000000000000000000000000008000000000000,
|
|
33303333,
|
|
#GOGOEND
|
|
|
|
0,
|
|
#END
|
|
|
|
|
|
COURSE:Easy
|
|
LEVEL:3
|
|
BALLOON:4
|
|
SCOREINIT:510,4390
|
|
SCOREDIFF:153
|
|
|
|
#START
|
|
0101,
|
|
0111,
|
|
0101,
|
|
0144,
|
|
|
|
0101,
|
|
0111,
|
|
0101,
|
|
0111,
|
|
|
|
#GOGOSTART
|
|
33,
|
|
33,
|
|
33,
|
|
33,
|
|
|
|
33,
|
|
33,
|
|
600000000000000000000000000000000008000000000000,
|
|
3334,
|
|
#GOGOEND
|
|
|
|
02,
|
|
02,
|
|
02,
|
|
02,
|
|
|
|
42,
|
|
42,
|
|
42,
|
|
70000800,
|
|
|
|
12,
|
|
12,
|
|
12,
|
|
1110,
|
|
|
|
12,
|
|
12,
|
|
11,
|
|
1002,
|
|
|
|
12,
|
|
12,
|
|
12,
|
|
1110,
|
|
|
|
12,
|
|
12,
|
|
11,
|
|
1,
|
|
|
|
500000000000000000000008000000000000200000000000,
|
|
500000000000000000000008000000000000200000000000,
|
|
500000000000000000000008000000000000200000000000,
|
|
500000000000000000000008000000000000200000000000,
|
|
|
|
500000000000000000000008000000000000200000000000,
|
|
500000000000000000000008000000000000200000000000,
|
|
500000000000000000000008000000000000200000000000,
|
|
1012,
|
|
|
|
500000000000000000000008000000000000200000000000,
|
|
500000000000000000000008000000000000200000000000,
|
|
500000000000000000000008000000000000200000000000,
|
|
500000000000000000000008000000000000200000000000,
|
|
|
|
0101,
|
|
0202,
|
|
13,
|
|
33,
|
|
0,
|
|
|
|
0101,
|
|
0111,
|
|
0101,
|
|
0144,
|
|
|
|
0101,
|
|
0111,
|
|
0101,
|
|
000000600000000000000000000000000008000000000000,
|
|
|
|
0101,
|
|
0111,
|
|
0101,
|
|
0144,
|
|
|
|
0101,
|
|
0111,
|
|
0101,
|
|
0111,
|
|
|
|
#GOGOSTART
|
|
33,
|
|
33,
|
|
33,
|
|
33,
|
|
|
|
33,
|
|
33,
|
|
600000000000000000000000000000000008000000000000,
|
|
#GOGOEND
|
|
0,
|
|
|
|
#GOGOSTART
|
|
33,
|
|
33,
|
|
33,
|
|
33,
|
|
|
|
33,
|
|
33,
|
|
600000000000000000000000000000000008000000000000,
|
|
3333,
|
|
#GOGOEND
|
|
|
|
0,
|
|
#END
|