670 lines
7.3 KiB
Plaintext
670 lines
7.3 KiB
Plaintext
//TJADB Project
|
||
TITLE:Mojipittan Medley
|
||
TITLEJA:もじぴったんメドレー
|
||
SUBTITLE:--Satoru Kousaki/Kotoba no Puzzle: Mojipittan
|
||
SUBTITLEJA:太鼓の達人オリジナル曲
|
||
BPM:168
|
||
WAVE:Mojipittan Medley.ogg
|
||
OFFSET:-1.751
|
||
DEMOSTART:40.322
|
||
|
||
COURSE:Oni
|
||
LEVEL:7
|
||
SCOREINIT:420
|
||
SCOREDIFF:105
|
||
|
||
|
||
#START
|
||
|
||
|
||
11201120,
|
||
11200000,
|
||
11201000,
|
||
|
||
#SECTION
|
||
#BRANCHSTART p,75,90
|
||
#N
|
||
11200000,
|
||
11201120,
|
||
11200000,
|
||
11201120,
|
||
11200000,
|
||
11201120,
|
||
11200000,
|
||
11200000,
|
||
11220000,
|
||
11221122,
|
||
11220000,
|
||
11221122,
|
||
11220000,
|
||
11221122,
|
||
11220000,
|
||
1000200011112000,
|
||
10201021,
|
||
01201120,
|
||
10201021,
|
||
0010200010102022,
|
||
10201021,
|
||
01201121,
|
||
1111,
|
||
1011101110111111,
|
||
|
||
#E
|
||
11221020,
|
||
11221020,
|
||
11221020,
|
||
11201120,
|
||
11221020,
|
||
11221020,
|
||
11221020,
|
||
11201000,
|
||
11221020,
|
||
11221122,
|
||
11221020,
|
||
11221122,
|
||
11221020,
|
||
11221122,
|
||
11221020,
|
||
1010200011222000,
|
||
10221021,
|
||
01201122,
|
||
10221021,
|
||
0010200010102022,
|
||
10221021,
|
||
01201122,
|
||
1212,
|
||
1011201120111111,
|
||
|
||
#M
|
||
10201112,
|
||
01202212,
|
||
10221012,
|
||
0010201010102002,
|
||
10201112,
|
||
01201212,
|
||
10221012,
|
||
1010201010101111,
|
||
1000202010102022,
|
||
12012122,
|
||
1000202010102022,
|
||
1020001020222020,
|
||
1000202010101022,
|
||
12010212,
|
||
1000202010001022,
|
||
1020001011112022,
|
||
12121212,
|
||
11221122,
|
||
12121212,
|
||
1010202010102022,
|
||
12121212,
|
||
11221122,
|
||
1022200020200020,
|
||
1120112011221000,
|
||
|
||
#GOGOSTART
|
||
#SECTION
|
||
#BRANCHSTART p,75,90
|
||
#N
|
||
10300202,
|
||
11102000,
|
||
11210112,
|
||
11210112,
|
||
10300202,
|
||
11102000,
|
||
11210112,
|
||
11210221,
|
||
00200011,
|
||
0000200000111010,
|
||
00200011,
|
||
0000200000111010,
|
||
#GOGOEND
|
||
01121121,
|
||
11121120,
|
||
01121121,
|
||
11121120,
|
||
01121121,
|
||
11121120,
|
||
01121121,
|
||
11121030,
|
||
11101020,
|
||
1210,
|
||
11101020,
|
||
1011101110002000,
|
||
11101020,
|
||
1210,
|
||
11101020,
|
||
1011101110002000,
|
||
32,
|
||
0022,
|
||
02,
|
||
0000000020222020,
|
||
02,
|
||
0022,
|
||
02,
|
||
0000000020222020,
|
||
11101020,
|
||
1000200010222020,
|
||
11101020,
|
||
1022102210221020,
|
||
11101020,
|
||
1000200010222020,
|
||
11101020,
|
||
1022102210111111,
|
||
10201001,
|
||
01101020,
|
||
10201001,
|
||
01101020,
|
||
10201001,
|
||
01101020,
|
||
10201001,
|
||
000000100000100000000000500000000000000008000000,
|
||
|
||
#E
|
||
20300202,
|
||
11102440,
|
||
11210112,
|
||
11210440,
|
||
30300202,
|
||
11202440,
|
||
11210112,
|
||
11210440,
|
||
10120120,
|
||
20120440,
|
||
12011021,
|
||
12020440,
|
||
#GOGOEND
|
||
01121121,
|
||
1010102010102022,
|
||
21121121,
|
||
11121120,
|
||
01121121,
|
||
1010102010102022,
|
||
21121121,
|
||
1010102022111000,
|
||
11101020,
|
||
1000200010112000,
|
||
11201020,
|
||
1011201120002000,
|
||
11101020,
|
||
10002000101120000,
|
||
11201020,
|
||
1011201120002000,
|
||
3022,
|
||
10112020,
|
||
11202000,
|
||
1010200020222020,
|
||
11202000,
|
||
11202020,
|
||
11221120,
|
||
1010202020222020,
|
||
11221020,
|
||
1000200010222020,
|
||
11221020,
|
||
1022102210221020,
|
||
11221020,
|
||
1010202010222020,
|
||
11221020,
|
||
1022102210111111,
|
||
10201001,
|
||
01201020,
|
||
11201001,
|
||
0010200010001111,
|
||
11201001,
|
||
01201020,
|
||
11201021,
|
||
000000100000200000000000500000000000000008000000,
|
||
|
||
#M
|
||
4000300020201020,
|
||
2020102020222022,
|
||
22122212,
|
||
2020102022222020,
|
||
40302212,
|
||
22122212,
|
||
22122212,
|
||
2020102022202011,
|
||
20120120,
|
||
2000102022222022,
|
||
12012021,
|
||
1020001022222022,
|
||
#GOGOEND
|
||
11201201,
|
||
2000201011102022,
|
||
11201201,
|
||
2000201011200000,
|
||
11201201,
|
||
2000201020202222,
|
||
11201201,
|
||
2000201022111000,
|
||
1011101110111011,
|
||
1011101110102000,
|
||
2022202220222020,
|
||
11221020,
|
||
1011101110111011,
|
||
1011101110102000,
|
||
2022202220222020,
|
||
11221020,
|
||
11201020,
|
||
1221,
|
||
11201012,
|
||
22112112,
|
||
22111221,
|
||
12112112,
|
||
11211122,
|
||
2020101020222020,
|
||
1011101110111011,
|
||
1011101110222020,
|
||
1022102210221022,
|
||
1022102210112002,
|
||
1011101110111011,
|
||
1011101110222020,
|
||
1022102210221022,
|
||
1022101111111111,
|
||
11201201,
|
||
20211020,
|
||
11201201,
|
||
2000201010001111,
|
||
11201201,
|
||
20211020,
|
||
11201201,
|
||
2020101022112211,
|
||
|
||
#GOGOSTART
|
||
#SECTION
|
||
#BRANCHSTART p,75,90
|
||
#N
|
||
12121212,
|
||
1020102010222020,
|
||
12121212,
|
||
1020102010222020,
|
||
1011102010221020,
|
||
1011102010221020,
|
||
1011102010221020,
|
||
1011101110111020,
|
||
#GOGOEND
|
||
3,
|
||
#GOGOSTART
|
||
1011102000111020,
|
||
0011102000000000,
|
||
12130000,
|
||
|
||
#E
|
||
12121212,
|
||
1020102010222020,
|
||
12121212,
|
||
1020102010222020,
|
||
1011102010221020,
|
||
1011102010221020,
|
||
1011102010221020,
|
||
1011202210112022,
|
||
#GOGOEND
|
||
1,
|
||
#GOGOSTART
|
||
1022102000221020,
|
||
0022102000000000,
|
||
12130000,
|
||
|
||
#M
|
||
12121212,
|
||
1020102010222020,
|
||
12121212,
|
||
1020102010222020,
|
||
1111102022221020,
|
||
1111102022221020,
|
||
1111102022221020,
|
||
2210221022102222,
|
||
#GOGOEND
|
||
11221122,
|
||
#GOGOSTART
|
||
2022102000221020,
|
||
0022102020002000,
|
||
34330000,
|
||
|
||
#BRANCHEND
|
||
#GOGOEND
|
||
|
||
|
||
#END
|
||
|
||
|
||
COURSE:Hard
|
||
LEVEL:3
|
||
SCOREINIT:590
|
||
SCOREDIFF:140
|
||
|
||
|
||
#START
|
||
|
||
|
||
,
|
||
,
|
||
,
|
||
10201001,
|
||
01101000,
|
||
10201001,
|
||
01101000,
|
||
10201001,
|
||
01101000,
|
||
10201001,
|
||
01101000,
|
||
11221001,
|
||
01101000,
|
||
11221001,
|
||
01111000,
|
||
11221001,
|
||
01101000,
|
||
11221001,
|
||
01113000,
|
||
00200011,
|
||
0202,
|
||
00200011,
|
||
0202,
|
||
00200011,
|
||
0202,
|
||
1111,
|
||
10101111,//27
|
||
|
||
#GOGOSTART
|
||
10100202,
|
||
11101000,
|
||
0202,
|
||
00200220,
|
||
10100202,
|
||
11101000,
|
||
0202,
|
||
00200220,
|
||
00200011,
|
||
00200111,
|
||
00200011,
|
||
00200111,//39
|
||
|
||
#GOGOEND
|
||
10002001,
|
||
01012000,
|
||
10002001,
|
||
01010120,
|
||
10002001,
|
||
01012000,
|
||
10002001,
|
||
01011030,
|
||
11101020,
|
||
1210,
|
||
11101020,
|
||
21212000,
|
||
11101020,
|
||
1210,
|
||
11101020,
|
||
21212030,
|
||
02,
|
||
02,
|
||
02,
|
||
00000210,
|
||
02,
|
||
02,
|
||
02,
|
||
0000000011111000,
|
||
11101020,
|
||
1210,
|
||
11101020,
|
||
21212000,
|
||
11101020,
|
||
1210,
|
||
11101020,
|
||
200000100000200000100000500000000000000008000000,
|
||
10201001,
|
||
01101000,
|
||
10201001,
|
||
01101000,
|
||
10201001,
|
||
01101000,
|
||
10201001,
|
||
000000100000100000000000500000000000000008000000,//79
|
||
|
||
#GOGOSTART
|
||
1111,
|
||
1111,
|
||
1111,
|
||
10101111,
|
||
21212121,
|
||
21212121,
|
||
21212121,
|
||
2222202011111010,//87
|
||
|
||
#GOGOEND
|
||
3,//88
|
||
|
||
#GOGOSTART
|
||
11120112,
|
||
01120000,
|
||
21130000,//91
|
||
|
||
#GOGOEND
|
||
,
|
||
,
|
||
#END
|
||
|
||
COURSE:Normal
|
||
LEVEL:4
|
||
SCOREINIT:590
|
||
SCOREDIFF:170
|
||
|
||
#START
|
||
,
|
||
,
|
||
,
|
||
10201001,
|
||
0110,
|
||
10201001,
|
||
0110,
|
||
10201001,
|
||
0110,
|
||
10201001,
|
||
0110,
|
||
10221001,
|
||
0110,
|
||
10201001,
|
||
0110,
|
||
10221001,
|
||
0110,
|
||
10201001,
|
||
0130,
|
||
00200011,
|
||
0202,
|
||
00200011,
|
||
0202,
|
||
00200011,
|
||
0202,
|
||
1111,
|
||
1111,//27
|
||
|
||
#GOGOSTART
|
||
1100,
|
||
1110,
|
||
0202,
|
||
0202,
|
||
1100,
|
||
1110,
|
||
0202,
|
||
0202,
|
||
00200011,
|
||
00200011,
|
||
00200011,
|
||
00200011,//39
|
||
|
||
#GOGOEND
|
||
12,
|
||
00012000,
|
||
12,
|
||
00000120,
|
||
12,
|
||
00012000,
|
||
12,
|
||
0013,
|
||
1112,
|
||
1110,
|
||
1111,
|
||
2220,
|
||
1112,
|
||
1110,
|
||
1111,
|
||
11111030,
|
||
02,
|
||
02,
|
||
02,
|
||
02,
|
||
02,
|
||
02,
|
||
02,
|
||
0011,
|
||
1112,
|
||
1210,
|
||
1112,
|
||
21212000,
|
||
1112,
|
||
1210,
|
||
1112,
|
||
200000100000200000100000500000000008000000000000,
|
||
10201001,
|
||
0110,
|
||
10201001,
|
||
0110,
|
||
10201001,
|
||
0110,
|
||
10201001,
|
||
000000000000100000000000500000000008000000000000,//79
|
||
|
||
#GOGOSTART
|
||
1111,
|
||
1111,
|
||
1111,
|
||
10101111,
|
||
2222,
|
||
2222,
|
||
21212121,
|
||
21212121,//87
|
||
|
||
#GOGOEND
|
||
4,//88
|
||
|
||
#GOGOSTART
|
||
10010001,
|
||
00010000,
|
||
00030000,//91
|
||
|
||
#GOGOEND
|
||
,
|
||
,
|
||
#END
|
||
|
||
COURSE:Easy
|
||
LEVEL:4
|
||
SCOREINIT:510
|
||
SCOREDIFF:150
|
||
|
||
#START
|
||
,
|
||
,
|
||
,
|
||
10001001,
|
||
0100,
|
||
10001001,
|
||
0100,
|
||
10001001,
|
||
0100,
|
||
10001001,
|
||
0100,
|
||
10011001,
|
||
0100,
|
||
10011001,
|
||
0100,
|
||
10011001,
|
||
0100,
|
||
10011001,
|
||
0130,
|
||
00200011,
|
||
0202,
|
||
00200011,
|
||
0202,
|
||
00200011,
|
||
0202,
|
||
11,
|
||
1111,//27
|
||
|
||
#GOGOSTART
|
||
1100,
|
||
1110,
|
||
0202,
|
||
0200,
|
||
1100,
|
||
1110,
|
||
0202,
|
||
0202,
|
||
00200011,
|
||
00200011,
|
||
00200011,
|
||
00000110,//39
|
||
|
||
#GOGOEND
|
||
12,
|
||
00011000,
|
||
12,
|
||
00000110,
|
||
12,
|
||
00011000,
|
||
12,
|
||
0013,
|
||
12,
|
||
1110,
|
||
12,
|
||
2220,
|
||
12,
|
||
1110,
|
||
12,
|
||
10111030,
|
||
02,
|
||
0220,
|
||
02,
|
||
0220,
|
||
02,
|
||
0220,
|
||
02,
|
||
0220,
|
||
12,
|
||
1110,
|
||
12,
|
||
2220,
|
||
12,
|
||
1110,
|
||
12,
|
||
500000000000000000000000000000000008000000000000,
|
||
10001001,
|
||
0110,
|
||
10001001,
|
||
0110,
|
||
10001001,
|
||
0110,
|
||
11,
|
||
500000000000000000000000000000000008000000000000,//79
|
||
|
||
#GOGOSTART
|
||
1011,
|
||
1110,
|
||
1011,
|
||
1110,
|
||
2022,
|
||
2220,
|
||
2222,
|
||
500000000000000000000000000000000008000000000000,//87
|
||
|
||
#GOGOEND
|
||
3,//88
|
||
|
||
#GOGOSTART
|
||
10010001,
|
||
00010000,
|
||
01110000,//91
|
||
|
||
#GOGOEND
|
||
,
|
||
,
|
||
#END |