Files
ESE/07 Game Music/Pokemon X and Y Wild Encounter Medley/Pokemon X and Y Wild Encounter Medley.tja
2023-06-15 19:15:39 -05:00

447 lines
5.5 KiB
Plaintext

//TJADB Project
TITLE:Pokémon X & Y Wild Encounter Medley
TITLEJA:ポケットモンスター X・Y 野生ポケモン戦メドレー
SUBTITLE:--Junichi Masuda/Pokémon X & Y
BPM:150
WAVE:Pokemon X and Y Wild Encounter Medley.ogg
OFFSET:-3.229
DEMOSTART:64.692
COURSE:Oni
LEVEL:7
SCOREINIT:550
SCOREDIFF:150
#START
300100111100,
300100111100,
111222111222,
111222111222,
111222111222,
#GOGOSTART
300300111100,
400400111222,
301110101210,
101110101212,
401110101212,
401400400400,
301110101210,
101110101212,
401110101212,
401400400400,
301210101212,
100000001000200010000000500008000000200010001000,
401210101211,
401400400400,
301210101212,
100000001000200010000000500008000000200010001000,
400001500000,
000000000000000008000000500000000000000008000000,
#GOGOEND
#BPMCHANGE 149
100111100100,
#BPMCHANGE 150
1033,
100111100100,
#BPMCHANGE 151.01
#SCROLL 0.99
1033,
#GOGOSTART
#BPMCHANGE 150
#SCROLL 1
400112200100,
200100200111,
2121,
112112200200,
300300111100,
400400111222,
#BPMCHANGE 151.39
#SCROLL 0.99
100111100000,
#GOGOEND
#BPMCHANGE 170
#SCROLL 1
1111222211221122,
1000201000202220,
1000201011102000,
1000201000202220,
1000201011102000,
1000200010102220,
1010222011102000,
10201120,
2220222022202220,
1000200010102220,
1010222011102000,
10201120,
1120112011201120,
1010202000102220,
1000202000112000,
1010202000102220,
2210221022102210,
1010202000102220,
1000202000112000,
1010202000102220,
01202020,
11221122,
1110222010102000,
22112211,
2220111020201000,
30210120,
1110200010202000,
30210120,
1110200010202000,
30210120,
#MEASURE 5/4
40400,
#GOGOSTART
#MEASURE 4/4
#BPMCHANGE 168.93
#SCROLL 1.01
3340,
#BPMCHANGE 171.09
#SCROLL 0.99
112112200000,
#GOGOEND
#MEASURE 2/4
#BPMCHANGE 147.84
#SCROLL 1.15
3,
#MEASURE 4/4
#BPMCHANGE 146
#SCROLL 1
,
1010202010222000,
1010202010222000,
1010202011102000,
1011201040000000,
#END
COURSE:Hard
LEVEL:6
SCOREINIT:640
SCOREDIFF:198
#START
3,
,
,
3,
600000000000000000000000000000000000000008000000,
#GOGOSTART
300300111100,
400000000000400000000000600000000000000008000000,
301100101100,
202200202200,
301100101100,
4444,
301100101100,
202200202200,
301100101100,
4444,
301101101100,
200000002000200000000000500000000000000008000000,
301101101100,
3434,
301101101100,
200000002000200000000000500000000000000008000000,
300001500000,
000000000000000008000000500000000000000008000000,
#GOGOEND
100111100100,
1044,
100111100100,
1044,
#GOGOSTART
100111100200,
100200100111,
1212,
111111100100,
300300111100,
400400111111,
100111100000,
#GOGOEND
#BPMCHANGE 170
600000000000000000000000000000000008000000000000,
30110122,
20120120,
30110122,
20120120,
30110110,
1010200011102000,
10110110,
500008000000500008000000500008000000500008000000,
30110110,
1010200011102000,
10110110,
500000000000000000000000000000000008000000000000,
10220110,
1000202000111000,
10220110,
500008000000500008000000500008000000500008000000,
10220110,
1000202000111000,
10220110,
01101020,
11221122,
1010202011102000,
22112211,
2020101022201000,
30110110,
11102220,
30110110,
11102220,
30120040,
#MEASURE 5/4
40400,
#GOGOSTART
#MEASURE 4/4
3330,
600000000000000000000000000000000008000000000000,
#GOGOEND
#BPMCHANGE 146
#MEASURE 2/4
3,
#MEASURE 4/4
,
11221110,
11202220,
11221110,
11104000,
#END
COURSE:Normal
LEVEL:4
BALLOON:3,3
SCOREINIT:690
SCOREDIFF:265
#START
3,
,
,
3,
600000000000000000000000000000000008000000000000,
#GOGOSTART
3330,
4433,
6,
000000000008000000000000100000000000100000000000,
4,
4444,
6,
000000000008000000000000100000000000100000000000,
4,
4444,
33,
3033,
5008,
3434,
33,
3033,
6,
000000000008000000000000000000000000000000000000,
#GOGOEND
1110,
0044,
1110,
0044,
#GOGOSTART
1212,
1210,
1212,
1210,
3330,
4433,
3440,
#GOGOEND
#BPMCHANGE 170
600000000000000000000000000000000008000000000000,
30030011,
10010000,
30030011,
10010000,
30070000,
8111,
100000000000000000500000000000000008000000000000,
1212,
30070000,
8111,
100000000000000000500000000000000008000000000000,
1212,
10010011,
1222,
10010000,
,
10010011,
1222,
10010000,
,
1212,
1210,
1212,
1210,
30030030,
03002020,
30030030,
03002020,
30030030,
#MEASURE 5/4
40400,
#GOGOSTART
#MEASURE 4/4
3330,
600000000000000000000000000000000008000000000000,
#GOGOEND
#BPMCHANGE 146
#MEASURE 2/4
3,
#MEASURE 4/4
,
10101110,
22201110,
10101110,
22204000,
#END
COURSE:Easy
LEVEL:3
BALLOON:2,5
SCOREINIT:620
SCOREDIFF:323
#START
3,
,
,
3,
,
#GOGOSTART
3330,
44,
6,
000000000008000000000000000000000000000000000000,
4,
3330,
6,
000000000008000000000000000000000000000000000000,
4,
3330,
33,
03,
7008,
3330,
33,
09,
,
8,
#GOGOEND
1110,
,
1110,
,
#GOGOSTART
1110,
1110,
1110,
22,
3330,
44,
3330,
#GOGOEND
#BPMCHANGE 170
600000000000000000000000000008000000000000000000,
30030000,
3,
30030000,
3,
10010000,
0111,
500000000000000000000000000000000000000000000008,
,
10010000,
0111,
500000000000000000000000000000000000000000000008,
,
10010000,
0110,
20020000,
,
10010000,
0110,
20020000,
,
1110,
2220,
1110,
2220,
30030030,
03000000,
30030030,
03000000,
30030000,
#MEASURE 5/4
40400,
#GOGOSTART
#MEASURE 4/4
3330,
60000800,
#GOGOEND
#BPMCHANGE 146
#MEASURE 2/4
3,
#MEASURE 4/4
,
1110,
22,
1110,
2240,
#END