Files
Thonker2 c66b5c4b11 A huge wave of SUBTITLEJA fixes is approaching!
A lot of charts have their SUBTITLEJA updated to match with official games, including tracks released in WiiU2, Vita and VitaMS games.
Other fixes:
05 Variety
Donut Hole (Kenshi Yonezu) (Category Chaged from "01 Pop" to "05 Variety")
Senbonzakura -Sachiko Kobayashi Version- (Category Chaged from "01 Pop" to "05 Variety")

07 Game Music
Let’s Kouken! ~Koi no Choueki ha 1,000,000-Nen~ (Fixed weird filename)

09 Namco Original
Neko Kujira (Added Old Chart in AC5/CS3)
Dark Ex Machina♡ (Updated to use single BALLOON command on Oni)
2026-01-04 15:35:56 +08:00

773 lines
8.1 KiB
Plaintext

//TJADB Project
TITLE:RIDGE RACER USA MIX
TITLEJA:Ridge racer (RIDGE RACER USA MIX)
SUBTITLE:--Hiroshi Okubo feat. Takenobu Mitsuyoshi (SEGA)/RIDGE RACER
SUBTITLEJA:feat. Takenobu Mitsuyoshi(SEGA)
BPM:232
WAVE:RIDGE RACER USA MIX.ogg
OFFSET:-1.337
DEMOSTART:60.302
COURSE:Oni
LEVEL:9
BALLOON:5,12,12,6
SCOREINIT:350,990
SCOREDIFF:80
#START
0708,
1000111010201020,
02120120,
1000111010201020,
02121010,
1000111010201020,
02120120,
1220101220101220,
1012201012201110, //9
1000111010201020,
0011102010001000,
2000111010201020,
0011102010001000,
1000111010201020,
0011102010001000,
1000111011102020,
0012201022201000, //17
1000111010201020,
0011102010001000,
1000111010201020,
0011102010001000,
1000111010201020,
0011102010001000,
1220101220101220,
1012201012201110, //25
100100100100200000101010,
20102101,
1340,
21121111,
1000211020001000,
22020112,
00112011,
20112111, //33
100000100000200100100000200000000000100010001000,
2000112010100010,
0000400040001110,
22121011,
2000201020011110,
22020112,
0000101020111010,
2011102000201000, //41
#GOGOSTART
1010111020102010,
0011200011102020,
1010111020102010,
0011200011102020,
1011100020102010,
0011200011102020,
1011100020102020,
0022100022201110, //49
1011100020102010,
0011200011102020,
1011100020102010,
0011200011102020,
1011100020102010,
0011200011102020,
1011100020101020,
0021101020100000, //57
#GOGOEND
7,
80002111,
10210210,
20112110,
10201021,
01202120,
211211,
202020100100100200100000, //65
11222211,
21211211,
21212211,
20212121,
1000100022222020,
2222202022202070,
000000000008,
0040000010002220, //73
10102011,
21101121,
12112011,
20212010,
10112011,
221122112211,
11222211,
20112120, //81
10402011,
21102011,
200100201010,
200000001000000010000000200000000000000000200200,
122122122122,
122122121111,
122111112222,
7008, //89
30102101,
02012030,
30102101,
02012030,
30102101,
02012030,
30102101,
000200000100200100101010, //97
10202101,
21012030,
30202101,
21012030,
30202101,
21012030,
30202101,
200100000100101010202020, //105
10211212,
11121122,
11221212,
11211222,
22111212,
01210120,
1220101220101220,
1012201012201110, //113
11221212,
02120120,
10120120,
10012020,
10201201,
10201201,
30210201,
30201202, //121
#GOGOSTART
1020111020001110,
2010112010001020,
1020111020001110,
2010112020002020,
1020111020001110,
2010112010001020,
1020111020001110,
2010112020002020, //129
1020111020001110,
2010112010001020,
1020111020001110,
2010112010002020,
1020111020001110,
2010112010001000,
40340304,
03040304, //137
06000000,
0,
0,
000000000000000000000000000000000000000000000008,
#GOGOEND
0,
0, //143
#END
COURSE:Hard
LEVEL:7
BALLOON:4,12,12
SCOREINIT:480,1740
SCOREDIFF:115
#START
0708,
10101101,
00010010,
10101101,
00010010,
10101101,
00010010,
20120120,
12012010,
10101202,
00011010,
10101212,
00021010,
10101202,
00011010,
10101022,
02021010, //17
10101202,
00011010,
10101212,
00021010,
10101202,
00011010,
10110050,
000000000000000000000000000000000008000000000000,
11102010,
22020101,
0120,
10220010,
10202010,
22010150,
0,
000000000000000000000000000000000008000000000000, //33
1221,
20220101,
00102010,
11020101,
2221,
11020105,
0,
000000000000000000000000000000000008000000000000, //41
#GOGOSTART
10101011,
01201020,
10101011,
01201020,
10101011,
01201020,
10101012,
02201110,
10101011,
01201020,
10101011,
01201020,
10101011,
01201020,
10101102,
02201100, //57
#GOGOEND
10101011,
01101010,
10101012,
02201010,
10101011,
01101010,
211212,
0211,
10101011,
01101010,
10101012,
02201010,
10101011,
01101010,
10101012,
02201010, //73
5,
000000000000000000000000000000000008000000000000,
7,
0008,
5,
000000000000000000000000000000000008000000000000,
7,
0008,
10202011,
01102011,
100100101010,
1111,
10101011,
01101010,
4,
0, //89
30101101,
01011030,
30101101,
01011030,
30101101,
01011030,
10101101,
01011110,
30202202,
02022030,
30202202,
02022030,
30202202,
02022030,
30202202,
02022011, //105
10101202,
00011010,
10101201,
20021010,
10101202,
00011010,
10110500,
000000000000000000000000000000000008000000000000,
10101202,
00011010,
10120120,
10011010,
10201201,
10101101,
10210201,
10101104, //121
#GOGOSTART
02102010,
20120004,
02102010,
21020004,
02102010,
21020004,
02102010,
21020004,
02102010,
20120004,
02102010,
20120004,
02102010,
20120000,
40340304,
03040304, //137
06000000,
0,
0,
000000000000000000000000000000000000000000000008,
#GOGOEND
0,
0, //143
#END
COURSE:Normal
LEVEL:6
BALLOON:10,10
SCOREINIT:520,2490
SCOREDIFF:133
#START
600000000000000000000000000000000008000000000000,
10101002,
00010010,
10101002,
00010010,
10101002,
00010010,
20020020,
02002000,
10101002,
00010010,
10101002,
00010010,
10101002,
00010010,
10101002,
02002020, //17
10101002,
00010010,
10001002,
00010010,
10101002,
00010010,
10010010,
01001010,
22,
20020000,
01,
10020000,
0220,
2005,
0,
000000000000000000000000000000000008000000000000, //33
0220,
20020000,
0101,
10020000,
2220,
20020005,
0,
000000000000000000000000000000000008000000000000, //41
#GOGOSTART
10101001,
01102000,
10101002,
02201000,
10101001,
01102000,
10101002,
02201000,
10101001,
01102000,
10101002,
02201000,
10101001,
01102000,
10102002,
02201000, //57
#GOGOEND
10001001,
0202,
10001002,
0210,
10001001,
0202,
10001002,
0210,
10001001,
0202,
10001002,
0210,
10001001,
0202,
10001002,
0210, //73
5,
000000000000000000000000000000000008000000000000,
7,
0008,
5,
000000000000000000000000000000000008000000000000,
7,
0008,
10101001,
0202,
10101002,
0211,
10101001,
0202,
4,
0, //89
30101001,
00010030,
30101001,
00010030,
30101001,
00010030,
30101001,
00010030,
40202202,
02020040,
40202202,
02020040,
40202202,
02020040,
40202202,
02020040, //105
10101002,
00010010,
10101002,
00010010,
10101002,
00010010,
10010050,
000000000000000000000000000000000008000000000000,
10101002,
00010000,
10101002,
00010000,
10100100,
20200200,
10100100,
20200203, //121
#GOGOSTART
01102010,
20220003,
01102010,
22020003,
01102010,
22020003,
0121,
22020003,
0121,
20220003,
0121,
20220003,
0121,
20220000,
3,
00000006, //137
0,
0,
0,
000000000000000000000000000000000000000000000008,
#GOGOEND
0,
0, //143
#END
COURSE:Easy
LEVEL:4
BALLOON:6,5
SCOREINIT:550,4790
SCOREDIFF:160
#START
600000000000000000000000000008000000000000000000,
10000001,
0,
10000001,
0,
10000001,
0,
2002,
02,
10000001,
0,
10000001,
0,
10000001,
0,
0500,
000000000000000008000000000000000000000000000000, //17
10000001,
0,
10000001,
0,
10000001,
0,
10010050,
000000000000000000000000000008000000000000000000,
2,
2,
02,
2,
0200,
2005,
0,
000000000000000000000000000008000000000000000000, //33
0200,
2,
0200,
2,
2,
20000005,
0,
000000000000000000000000000008000000000000000000, //41
#GOGOSTART
10101001,
01,
10101001,
01,
10101001,
01,
10101002,
02,
10101001,
01,
10101001,
01,
10101001,
01,
10101002,
02, //57
#GOGOEND
11,
0,
1,
1,
11,
0,
2,
2,
11,
0,
1,
1,
11,
0,
2,
2, //73
5,
000000000000000000000000000000000008000000000000,
7,
0008,
5,
000000000000000000000000000000000008000000000000,
7,
0008,
11,
1,
11,
1,
11,
11,
4,
0, //89
3,
0003,
3,
0003,
3,
0003,
3,
0,
4,
0004,
4,
0004,
4,
0004,
4,
0, //105
10001001,
0,
10000001,
0,
10001001,
0,
5,
000000000000000000000000000008000000000000000000,
10001001,
0,
10000001,
0,
1110,
2220,
1110,
20202003, //121
#GOGOSTART
0110,
10010003,
0110,
20020003,
0110,
10010003,
0110,
10010003,
0110,
10010003,
0110,
20020003,
0110,
10010000,
3,
00000006, //137
0,
0,
0,
000000000000000000000000000000000000000000000008,
#GOGOEND
0,
0, //143
#END