Files
2026-09-09 16:46:55 -04:00

484 lines
4.3 KiB
Plaintext

//TJADB Project
TITLE:Sora
TITLEJA:空
SUBTITLE:--Satoru Kousaki feat. Juri Takita/THE iDOLM@STER Shiny TV
SUBTITLEJA:
BPM:168
WAVE:Sora.ogg
OFFSET:-1.725
DEMOSTART:49.742
SCENEPRESET:IMAS
COURSE:Oni
LEVEL:6
BALLOON:13,13,18
SCOREINIT:640,2230
SCOREDIFF:170
NOTESDESIGNER3:Kuboken
#START
0,
0,
0,
0,
1002,
1122,
10110000,
44040000, //8
10211221,
10112010,
10220221,
12010111,
20220221,
10112022,
500000000000000000000000000000000008000000200000,
01112030, //16
11221022,
02201010,
11221022,
02201010,
11211021,
01202020,
500000000000000000000000000000000008000000200000,
02202030, //24
11221022,
02201010,
11221021,
01210112,
0011102000101020,
0011102000102220,
10210150,
000000000000000000000000000000000008000000000000,
1110111011101111,
1020202020222020, //34
#GOGOSTART
1010221010102010,
1010221000102010,
1010221010102010,
1010221000102010,
0010222010002010,
0010222010002010,
1110111011101022,
2020201000222020, //42
1010221010102010,
1010221000102010,
1010221010102010,
1010221000102010,
0010222010002010,
0010222010002010,
1110111011101020,
20202021,
1000101000222222,
20002207, //52
0008,
#GOGOEND
0,
0,
0, //56
1,
20020000,
1,
20020000,
1,
2,
10101011,
1010001000222020, //64
#GOGOSTART
1010221010102010,
1010221000102010,
1010221010102010,
1010221000102010,
0010222010002010,
0010222010002010,
1110111011101020,
20202021,
1000101000222222,
20002207, //74
0008,
11220220,
10201121,
01217000,
00000008,
0,
1010202000102022,
2010201000222010, //82
#GOGOEND
3,
0,
0, //85
#END
COURSE:Hard
LEVEL:4
BALLOON:10,10,13
SCOREINIT:650,3020
SCOREDIFF:175
#START
0,
0,
0,
0,
1002,
1122,
10110000,
44040000,
10220220,
10110110,
10220220,
10110110,
10220220,
10112020,
500000000000000000000000000000000000000000000008,
0,
11101022,
02202020,
11101022,
02202020,
11101022,
02202020,
500000000000000000000000000000000000000000000008,
0,
11101022,
02202020,
11101022,
02220111,
02220111,
02220112,
20210150,
000000000000000000000000000000000008000000000000,
0,
02222000,
#GOGOSTART
11211121,
11210121,
11211121,
11210222,
01111022,
01111001,
11221122,
11220121,
11211121,
11210121,
11211121,
11210222,
01111022,
01111001,
11221122,
10101011,
10110004,
40000007,
0008,
#GOGOEND
0,
0,
0,
1,
20020000,
1,
20020000,
1,
2,
1111,
11010000,
#GOGOSTART
11211121,
11210121,
11211121,
11210222,
01111022,
01111001,
11221122,
10101011,
10110004,
40000007,
0008,
0,
0,
07,
00000008,
0,
20220200,
10110111,
#GOGOEND
3,
0,
0,
#END
COURSE:Normal
LEVEL:4
BALLOON:7,7,10
SCOREINIT:940,5700
SCOREDIFF:368
#START
0,
0,
0,
0,
1,
1011,
1,
40040000,
1,
1011,
1,
0,
2,
2022,
500000000000000000000000000000000000000000000008,
0,
1110,
0,
1110,
0,
1110,
2222,
500000000000000000000000000000000000000000000008,
0,
1110,
0,
1110,
0002,
0102,
0102,
0105,
000000000000000000000000000000000008000000000000,
0,
0,
#GOGOSTART
10111000,
30330000,
10111000,
30330000,
1110,
2220,
1111,
10110000,
10111000,
30330000,
10111000,
30330000,
1110,
2220,
1111,
1111,
10110000,
40000007,
0008,
#GOGOEND
0,
0,
0,
1,
0,
1,
0,
1,
2,
11,
10110000,
#GOGOSTART
10111000,
30330000,
10111000,
30330000,
1110,
2220,
1111,
1111,
10110000,
40000007,
0008,
0,
0,
07,
00000008,
0,
20220000,
10110000,
#GOGOEND
3,
0,
0,
#END
COURSE:Easy
LEVEL:3
BALLOON:7,7,10
SCOREINIT:740,7260
SCOREDIFF:345
#START
0,
0,
0,
0,
1,
11,
1,
40040000,
1,
11,
1,
0,
2,
22,
500000000000000000000000000000000000000000000008,
0,
1110,
0,
1110,
0,
1110,
2220,
500000000000000000000000000000000000000000000008,
0,
1110,
0,
1110,
0,
0101,
0202,
0105,
000000000000000000000000000000000008000000000000,
0,
0,
#GOGOSTART
1110,
30030000,
1110,
30030000,
1110,
2220,
1111,
1,
1110,
30030000,
1110,
30030000,
1110,
2220,
1111,
11,
1,
40000007,
0008,
#GOGOEND
0,
0,
0,
1,
0,
1,
0,
1,
2,
11,
1,
#GOGOSTART
1110,
30030000,
1110,
30030000,
1110,
2220,
1111,
11,
1,
40000007,
0008,
0,
0,
07,
00000008,
0,
2200,
1100,
#GOGOEND
3,
0,
0,
#END