Files
GanYiZhongandClaude Opus 5 7320a9448e Add TITLEZH_TW / SUBTITLEZH_TW (Traditional Chinese titles)
Add Traditional Chinese title (1276 charts) and subtitle (900 charts)
header fields. Header additions only; no chart data changed.

Co-Authored-By: Claude Opus 5 <noreply@anthropic.com>
2026-09-17 12:42:55 +08:00

713 lines
6.3 KiB
Plaintext

//TJADB Project
TITLE:The Encounter Code
TITLEJA:The Encounter Code
TITLEZH:The Encounter Code
TITLEZH_TW:The Encounter Code
SUBTITLE:--technoplanet From "WAHLAP Esports WEC2025"
SUBTITLEJA:technoplanet 「WAHLAP eスポーツWEC2025」より
SUBTITLEZH:technoplanet 出自"华立电竞WEC2025"
SUBTITLEZH_TW:--technoplanet From "WAHLAP Esports WEC2025"
BPM:212
WAVE:The Encounter Code.ogg
OFFSET:-1.000
DEMOSTART:57.623
COURSE:Oni
LEVEL:9
BALLOON:20,25,6
SCOREINIT:1090
SCOREDIFF:0
#START
20020000,
0,
7,
00000800,
2,
00000002,
2,
2,
10200120,
1000200000102222,
10200120,
1000200000102222,
11200120,
11200121,
2011201020102011,
2111111122221111,
2,
0000000000001111, //18
20110104,
03040120,
20140403,
00010222,
10201122,
11120120,
1000211021102110,
1022201110102000,
3022201020101120,
1020102010221010,
2011202010201030,
0040004000101011,
200000000000101010200000000000100100200000100000,
2220101020112010,
2011111020111110,
2111111121111111, //34
7,
0,
8,
0,
1000101120200010,
2010001120201020,
1000101120200020,
11,
30020020,
20020020,
20020020,
1222,
1000211021102110,
2111211121112110,
33,
300040004000300111200000, //50
#GOGOSTART
3011202011101022,
2210102222101020,
1111202011101022,
2210102222101020,
1021021020120120,
1021021020120120,
1000111120002220,
3344,
1110002010200010,
02020211,
1111202212221210,
1011202222102211,
2000102210221120,
1022101020112020,
1000111120002220,
3344, //66
#GOGOEND
30020202,
02020222,
10210201,
02020122,
21212101,
02020202,
10201022,
01201010,
1022201010201020,
0011201020102010,
1022201010201020,
0011201020102010,
1021021020120120,
1021021020120120,
1000101120001000,
20112010,
20112011,
2010101020111111, //84
222222111111,
222111222111,
200010001000200010001000200100100100200100100100,
78,
10020202,
01010210,
10120201,
00010222,
10201122,
11120120,
1000211021102110,
1022201110102000,
3022201020101120,
1020102010221010,
2011202010201030,
0040004000101011,
200000000000101010200000000000100100200000100000,
2220101020112010,
2011111020111110,
300040004000300111200000, //104
#GOGOSTART
3011202011101022,
2210102222101020,
1111202011101022,
2210102222101020,
1021021020120120,
1021021020120120,
1000111120002220,
3344,
1110002010200010,
02020211,
1111202212221210,
1011202222102211,
2000102210221120,
1022101020112020,
1000111120002220,
3344, //120
#GOGOEND
222111221111,
211221222111,
101221211211,
200020001000200010001000200010001000100100100100,
20114010,
41014010,
6,
0,
0,
000000000000000000000000000000000000000000000008,
0, //131
#END
COURSE:Hard
LEVEL:6
BALLOON:13,20,5
SCOREINIT:1590
SCOREDIFF:0
#START
20020000,
0,
7,
00000800,
2,
00000002,
2,
2,
10200120,
10200122,
10200120,
10200120,
11200120,
11200120,
21210121,
11111111,
2,
0001, //18
20110102,
01020120,
20120201,
00010222,
20011220,
11120120,
10212121,
10211120,
30210112,
02020111,
20121203,
04040111,
20120121,
22110120,
20112011,
21112111, //34
7,
0,
8,
0,
10012201,
01012212,
10112202,
11,
3002,
2002,
2002,
1,
10111011,
11111110,
33,
344300, //50
#GOGOSTART
3000202010200022,
2010002220100020,
1000202010200022,
2010002220100020,
1001001020020020,
1001001020020020,
10112020,
3344,
11021201,
02020210,
1010200020201011,
10122121,
20221212,
0020202010111010,
10112020,
3344, //66
#GOGOEND
30020202,
02020220,
10210201,
02020120,
21212101,
02020202,
10201022,
01101010,
12011202,
0011101020102000,
12011202,
0011101020102000,
1001001020020020,
1001001020020020,
10112010,
20112010,
20112011,
21112111, //84
222200111100,
222200111100,
221100221100,
78,
10020202,
01010210,
10120201,
00010222,
20011220,
11120120,
10212121,
10211120,
30210112,
02020111,
20121203,
04040111,
20120121,
22110120,
20112011,
344300, //104
#GOGOSTART
3000202010200022,
2010002220100020,
1000202010200022,
2010002220100020,
1001001020020020,
1001001020020020,
10112020,
3344,
11021201,
02020210,
1010200020201011,
10122121,
20221212,
0020202010111010,
10112020,
3344, //120
#GOGOEND
222200111100,
222200111101,
100202202200,
101010100000200000100100,
4041,
40014010,
6,
0,
0,
000000000000000000000000000000000000000000000008,
0, //131
#END
COURSE:Normal
LEVEL:6
BALLOON:10,14,4
SCOREINIT:2390
SCOREDIFF:0
#START
2,
0,
7,
00000800,
2,
0,
2,
2,
1200,
1200,
1200,
1201,
1202,
1202,
1202,
500000000000000000000000000000000000000000000008,
0,
0001, //18
20110102,
02020220,
10110101,
00010220,
2022,
11010110,
1222,
10201110,
30220102,
02020110,
10110104,
04040000,
20020110,
22010110,
2121,
20112011, //34
7,
0,
8,
0,
10020202,
02011010,
12,
11,
3,
2,
2,
1,
1111,
11101110,
33,
333300, //50
#GOGOSTART
30221102,
01020110,
10221102,
01020110,
1001001010000000,
1001001010000000,
12,
3344,
11020202,
02020110,
10222011,
10120120,
20020202,
02220111,
12,
3344, //66
#GOGOEND
3,
0,
0,
0,
20202202,
02020201,
10001001,
0011,
12010202,
01102020,
12010202,
01102020,
1001001010000000,
1001001010000000,
12,
22,
2121,
20112011, //84
2211,
2211,
2121,
78,
10020202,
02020110,
10110101,
00010220,
2022,
11010110,
1222,
10201110,
30220102,
02020110,
10110104,
04040000,
20020110,
22010110,
2121,
333300, //104
#GOGOSTART
30221102,
01020110,
10221102,
01020110,
1001001010000000,
1001001010000000,
12,
3344,
11020202,
02020110,
10222011,
10120120,
20020202,
02220111,
12,
3344, //120
#GOGOEND
2211,
2211,
1222,
1120,
44,
44,
6,
0,
0,
000000000000000000000000000000000000000000000008,
0, //131
#END
COURSE:Easy
LEVEL:4
BALLOON:8,11,3
SCOREINIT:5130
SCOREDIFF:0
#START
0,
0,
7,
00000800,
2,
0,
2,
2,
1,
1,
1,
1001,
1,
1,
1,
500000000000000000000000000000000000000000000008,
0,
0, //18
10000001,
00010000,
10000001,
0,
1,
1,
11,
1110,
30000001,
00010000,
10000003,
03030000,
20020000,
10010000,
22,
22, //34
7,
0,
8,
0,
1,
0,
1,
11,
3,
0,
0,
0,
11,
1111,
33,
600000000000000000000008000000000000000000000000, //50
#GOGOSTART
30010001,
01010000,
10010001,
01010000,
11,
11,
12,
3333,
10000002,
0,
1011,
1,
20000002,
00020000,
12,
3333, //66
#GOGOEND
3,
0,
0,
0,
20000002,
0,
10000001,
01,
10010002,
02,
10010002,
02,
11,
11,
1,
1,
11,
11, //84
1110,
1110,
1110,
78,
10000001,
00010000,
10000001,
0,
2,
2,
11,
1110,
30000001,
00010000,
10000003,
03030000,
20020000,
10010000,
22,
33, //104
#GOGOSTART
30010001,
01010000,
10010001,
01010000,
11,
11,
12,
3333,
10000002,
0,
1011,
1,
20000002,
00020000,
12,
3333, //120
#GOGOEND
11,
11,
12,
1110,
44,
44,
6,
0,
0,
000000000000000000000000000000000000000000000008,
0, //131
#END