Files
GanYiZhongandClaude Opus 5 7320a9448e Add TITLEZH_TW / SUBTITLEZH_TW (Traditional Chinese titles)
Add Traditional Chinese title (1276 charts) and subtitle (900 charts)
header fields. Header additions only; no chart data changed.

Co-Authored-By: Claude Opus 5 <noreply@anthropic.com>
2026-09-17 12:42:55 +08:00

462 lines
6.5 KiB
Plaintext

//TJADB Project
TITLE:Yurame
TITLEJA:ゆらめ
TITLEZH:YURAME
TITLEKO:YURAME
TITLEZH_TW:YURAME
SUBTITLE:--mifumei / Synchronica
SUBTITLEJA:ミフメイ 「シンクロニカ」より
SUBTITLEZH:mifumei 出自"Synchronica"
SUBTITLEZH_TW:--mifumei 來自「Synchronica」
BPM:121
WAVE:Yurame.ogg
OFFSET:-3.000
DEMOSTART:75.367
//SONG_ID:syyura
COURSE:Oni
LEVEL:9
BALLOON:28,28,28,3
SCOREINIT:1610
SCOREDIFF:0
#START
100000000002200000000200000000000000200000000000,
#MEASURE 5/4
22000,
#MEASURE 4/4
100000000002200000000200000000000000200000000000,
#MEASURE 5/4
200010200020200000000000000000000000000000000000000000000011,
#MEASURE 2/4
100000000002200000000200,
#MEASURE 4/4
#SCROLL 1.5
#GOGOSTART
1000200020020000,
000000000000000000000000100000000002200000000200,
000000200000201202200102,
200020200000100000200020100010100002200000000200,
1000100020020000,
200000202020200000000000100000000002200000000200,
000000200200201222200102,
202202202202
#GOGOEND
101010101010, //13
102102200202102002102202,
102202102002102100222202,
102102200202100202102101,
100202102002102100222112,
100000200202102002102202,
102202102002102102102202,
101102202101002202102102,
102201102002201101222111,
100000400400101100400400,
102200200100202100200200,
101100400400101100400400,
100200100201202101222202,
101100400400101100400400,
102200200201202100200100,
101100400400101100400300,
101100200202102100200200, //29
#SCROLL 1
3002000020020000,
3002000020020020,
32000000,
2222,
102002200202202002202202,
102002200202102002202202,
102002200102001002002202,
#SCROLL 1.5
4022,
30070000,
00084040,
30070000,
000000000800102010201020,
30070000,
000000000800201100400000,
600000000008000000600000000008000000600000000008,
000000600000000008000000300020202020202020202020, //45
100000102101102001102202,
102221102200400400400400,
102001201101001221202200,
33333333,
#GOGOSTART
400
#GOGOEND
002100102001101201102,
102201202102111111201020,
100101201102002001200200,
101200300202100400111111,
#SCROLL 2
200000
#SCROLL 1.5
202102201202
#GOGOSTART
102201,
202102101201102101212222,
102102102102101101212122,
708001201201201201221221,
100201201101201101201101,
202101202101202121101210,
301110201121101210201222,
122212111222112222112222,
#GOGOEND
100000000002200000000200
#BPMCHANGE 115
000000000000
#BPMCHANGE 93
200000000000,
#MEASURE 8/4
#BPMCHANGE 60
22000000, //63
#END
COURSE:Hard
LEVEL:8
BALLOON:24,24,24
SCOREINIT:2510
SCOREDIFF:0
#START
1000200200002000,
#MEASURE 5/4
22000,
#MEASURE 4/4
1000200200002000,
#MEASURE 5/4
202202200000000000000000000000,
#MEASURE 2/4
10002002,
#MEASURE 4/4
#SCROLL 1.5
#GOGOSTART
1000200020020000,
0000000010002002,
000000200000202202200000,
0020100010002002,
1000200020021000,
200000500008000000000000100000000000200000000200,
000000200000202202200100,
200200200200
#GOGOEND
101010101010, //13
100000200202000002102100,
100200202002002100222200,
100000200202000002102100,
100200202002002100222200,
100000200202000002102100,
102200002002002102002000,
100200002002002200002002,
100200102000200102002200,
10441144,
12212122,
10441144,
12121212,
10441144,
12221221,
10441144,
11221210, //29
#SCROLL 1
3002000020020000,
3002000020020020,
32000000,
2222,
1002002010020020,
1002002020020020,
100200100100001002200200,
#SCROLL 1.5
4022,
30070000,
00084040,
30070000,
000000000800101010101010,
30070000,
000000000800201100400000,
600000000008000000600000000008000000600000000008,
000000600000000008000000300020002000200020002000, //45
100000100101002001002200,
100200102200400400400400,
102001200101001001200200,
33333333,
#GOGOSTART
400
#GOGOEND
001100102001001001200,
100202002001101010201020,
100002200101002001200200,
100000200000300000200000100000400000500000000008,
000000200102001200
#GOGOSTART
102001,
200102001200102001202220,
101100101100101101101100,
500008000000200000200000200000200000200000200000,
100001200001200001200001,
200001200001200020002000,
311212121212,
500000000000000000000000000000000000000008000000,
#GOGOEND
10002002
#BPMCHANGE 115
0000
#BPMCHANGE 93
2000,
#MEASURE 8/4
#BPMCHANGE 60
22000000, //63
#END
COURSE:Normal
LEVEL:7
BALLOON:16,16,16
SCOREINIT:3790
SCOREDIFF:0
#START
1000200200002000,
#MEASURE 5/4
22000,
#MEASURE 4/4
1000200200002000,
#MEASURE 5/4
2220000000,
#MEASURE 2/4
10002002,
#MEASURE 4/4
#SCROLL 1.5
#GOGOSTART
0000200020020000,
0000000010002002,
00202220,
0000000010002002,
0000200020020000,
000000500008000000000000100000000000200000000200,
00202220,
000000
#GOGOEND
111111, //13
10220011,
10200122,
10220011,
10200122,
10220011,
100000002002002002002000,
10010011,
10201122,
10441044,
02212120,
10441044,
02121210,
10441044,
02221220,
10441044,
01221210, //29
#SCROLL 1
300000000020000000000000200000000200000000000000,
300000000020000000000000200000000200000000000000,
3,
2222,
1002000010020000,
1002000020020000,
10010010,
#SCROLL 1.5
4022,
30070000,
00084040,
30070000,
000000000800101000101000,
30070000,
00080040,
600000000008000000600000000008000000600000000008,
000000600000000008000000300000000000400000000000, //45
10101012,
12104444,
100000200001001000200000,
33333333,
#GOGOSTART
400
#GOGOEND
000100002001001000200,
100200111100,
100000200001001000200200,
100000000000300000000000200000400000500000000008,
000000100001000100
#GOGOSTART
001000,
100001000100001000100000,
11111110,
500008000000200000000000200000000000200000000000,
1222,
200200202020,
301210101210,
500000000000000000000000000000000000000008000000,
#GOGOEND
10002002
#BPMCHANGE 115
0000
#BPMCHANGE 93
2000,
#MEASURE 8/4
#BPMCHANGE 60
22000000, //63
#END
COURSE:Easy
LEVEL:5
BALLOON:13,13,13
SCOREINIT:6020
SCOREDIFF:0
#START
1000000200000000,
#MEASURE 5/4
22000,
#MEASURE 4/4
1000000200000000,
#MEASURE 5/4
22000,
#MEASURE 2/4
10000002,
#MEASURE 4/4
#SCROLL 1.5
#GOGOSTART
0000000020020000,
0000000010000002,
0022,
0000000010000002,
0000000020020000,
000000500008000000000000100000000000000000000200,
0022,
0
#GOGOEND
0, //13
10020010,
10200120,
10020010,
10200120,
10020010,
10200120,
10010010,
10200120,
00440044,
01102220,
00440044,
01102220,
00440044,
02201110,
00440044,
02201110, //29
#SCROLL 1
3,
3,
3,
2222,
11,
12,
1,
#SCROLL 1.5
4022,
30070000,
00080000,
30070000,
00080000,
30070000,
00080000,
600000000008000000600000000008000000600000000008,
000000600000000008000000000000000000000000000000, //45
1110,
10104440,
1110,
33303330,
#GOGOSTART
4
#GOGOEND
0100010,
1211,
1012,
500000000000000000000000000000000000000000000008,
000000000001000100
#GOGOSTART
001000,
100001000100001000100000,
1111,
0222,
1222,
2220,
311111,
500000000000000000000000000000000008000000000000,
#GOGOEND
10000002
#BPMCHANGE 115
0000
#BPMCHANGE 93
0000,
#MEASURE 8/4
#BPMCHANGE 60
22000000, //63
#END