426 lines
5.5 KiB
Plaintext
426 lines
5.5 KiB
Plaintext
//TJADB Project
|
|
TITLE:relations -Old Chart-
|
|
TITLEJA:relations
|
|
SUBTITLE:--Koji Nakagawa feat. 765PRO ALLSTARS/THE iDOLM@STER
|
|
SUBTITLEJA:旧譜面 「アイドルマスター」より
|
|
BPM:142
|
|
WAVE:relations 765PRO ALLSTARS Version.ogg
|
|
OFFSET:-1.918
|
|
DEMOSTART:76.031
|
|
SCENEPRESET:IMAS
|
|
|
|
|
|
COURSE:Oni
|
|
LEVEL:8
|
|
BALLOON:
|
|
SCOREINIT:520
|
|
SCOREDIFF:135
|
|
|
|
#START
|
|
1000001110001011,
|
|
1010001000111000,
|
|
1000001110001011,
|
|
1010001000112000,
|
|
|
|
1000001110001011,
|
|
2020001000112000,
|
|
1000001110001011,
|
|
2020001000111000,
|
|
500000000000000000000000000000000000000008000000,
|
|
1111100030300000, //10
|
|
|
|
10021121,
|
|
0011201000102000,
|
|
10021121,
|
|
0011201000221010,
|
|
|
|
2010112000102210,
|
|
1011201000221010,
|
|
2010112000112010,
|
|
0020200202022000, //18
|
|
|
|
1011201101012020,
|
|
1011201101012000,
|
|
1011201101012020,
|
|
1011201101012000,
|
|
|
|
1011102020111020,
|
|
2011102011102000,
|
|
1110222011102220,
|
|
1120112011111000, //26
|
|
|
|
1020112010211020,
|
|
1020112010211020,
|
|
1020112010211020,
|
|
1021102010211020,
|
|
|
|
1020112010211020,
|
|
1020112010211020,
|
|
1020112010211020,
|
|
32413241, //34
|
|
|
|
1020112010211020,
|
|
1020112010211020,
|
|
1020112010211020,
|
|
1020112011201000,
|
|
|
|
1020112011112000,
|
|
1020112011122000,
|
|
1111202011112020,
|
|
500000000000000000000000000000000000000008000000,
|
|
1110111011101110,
|
|
30000300, //44
|
|
|
|
#GOGOSTART
|
|
1011102011112000,
|
|
1011102011112000,
|
|
1011201120112000,
|
|
500000000000000000000000000000000008000000000000,
|
|
|
|
1011202011112020,
|
|
1110111011111000,
|
|
1022202011112020,
|
|
3003003000000000, //52
|
|
|
|
1011102011112011,
|
|
1011102011112000,
|
|
1110300022204000,
|
|
600000000000000000000008000000000000300000000000,
|
|
|
|
3022201011111000,
|
|
3022201111103000,
|
|
300000500000000008000000300000500000000008000000,
|
|
3333, //60
|
|
#GOGOEND
|
|
|
|
1011202101012020,
|
|
1111202101012000,
|
|
1011202201012020,
|
|
1120112011112000,
|
|
|
|
1011202101012020,
|
|
1011201201012020,
|
|
1110220102211020,
|
|
1020111101021020, //68
|
|
|
|
1110111011121020,
|
|
1111111030300000,
|
|
2020202202022020,
|
|
2020202202022020,
|
|
|
|
0,
|
|
0,
|
|
0, //75
|
|
#END
|
|
|
|
|
|
COURSE:Hard
|
|
LEVEL:6
|
|
BALLOON:
|
|
SCOREINIT:640
|
|
SCOREDIFF:175
|
|
|
|
#START
|
|
10101011,
|
|
01010220,
|
|
10101022,
|
|
02010000,
|
|
|
|
10101011,
|
|
01010220,
|
|
10101022,
|
|
02010110,
|
|
500000000000000000000000000000000000000000000008,
|
|
00003300, //10
|
|
|
|
10021121,
|
|
01210110,
|
|
10021121,
|
|
01210000,
|
|
|
|
11220110,
|
|
11220110,
|
|
11220110,
|
|
1, //18
|
|
|
|
1011100010002000,
|
|
1011100020202000,
|
|
1011100010002000,
|
|
1011100020202000,
|
|
|
|
1011101000202000,
|
|
1011101000202000,
|
|
1011100010111000,
|
|
1011101010003000, //26
|
|
|
|
10201120,
|
|
10201120,
|
|
10201121,
|
|
10210120,
|
|
|
|
10201120,
|
|
10201120,
|
|
10201120,
|
|
3434, //34
|
|
|
|
10201120,
|
|
10201120,
|
|
10201121,
|
|
10210120,
|
|
|
|
11201120,
|
|
11211020,
|
|
11201120,
|
|
500000000000000000000000000000000000000000000008,
|
|
0,
|
|
30000300, //44: Wii5 first big don = giant note
|
|
|
|
#GOGOSTART
|
|
1011101010111000, //Missed Giant: 1011100010111000,
|
|
1011101010003000, //Missed Giant: 1011100010003000,
|
|
1011100020222000,
|
|
500000000000000000000000000000000008000000000000,
|
|
|
|
1011101010111000, //Missed Giant: 1011100010111000,
|
|
1110111030303000,
|
|
1022200010222000,
|
|
3003003000000000, //52
|
|
|
|
1011101010111000, //Missed Giant: 1011100010111000,
|
|
1011101010111000, //Missed Giant: 1011100010111000,
|
|
1110300022204000,
|
|
600000000000000000000008000000000000300000000000,
|
|
|
|
30222030,
|
|
30222030,
|
|
500000000000000000000000000000000000000008000000,
|
|
600000000000000000000000000000000008000000000000, //60
|
|
#GOGOEND
|
|
|
|
10201120,
|
|
10210120,
|
|
1110200011102000,
|
|
1011101010002000,
|
|
|
|
10201120,
|
|
10210120,
|
|
1110200011102000,
|
|
1011101010002000, //68
|
|
|
|
1110111011102000,
|
|
1110111030300000,
|
|
5,
|
|
000000000000000000000000000000000000000000000008,
|
|
|
|
0,
|
|
0,
|
|
0, //75
|
|
#END
|
|
|
|
|
|
COURSE:Normal
|
|
LEVEL:5
|
|
BALLOON:10,10,8
|
|
SCOREINIT:890
|
|
SCOREDIFF:278
|
|
|
|
#START
|
|
1110,
|
|
12,
|
|
1110,
|
|
1022,
|
|
|
|
1110,
|
|
12,
|
|
1110,
|
|
1022,
|
|
500000000000000000000000000000000000000000000008,
|
|
00003300, //10
|
|
|
|
10011000,
|
|
1,
|
|
10011000,
|
|
1,
|
|
|
|
10022000,
|
|
10022000,
|
|
10022000,
|
|
1, //18
|
|
|
|
10111000,
|
|
1110,
|
|
10111000,
|
|
1110,
|
|
|
|
10222000,
|
|
1220,
|
|
1111,
|
|
500000000000000000000000000000000008000000000000, //26
|
|
|
|
10101110,
|
|
1111,
|
|
500000000000000000000000000000000000000000000008,
|
|
0,
|
|
|
|
20202220,
|
|
2222,
|
|
500000000000000000000000000000000008000000000000,
|
|
1210, //34
|
|
|
|
10101110,
|
|
1122,
|
|
7,
|
|
8,
|
|
|
|
10101110,
|
|
3,
|
|
10101110,
|
|
7,
|
|
8,
|
|
30000300, //44: Wii5 first big don = giant note
|
|
|
|
#GOGOSTART
|
|
10101110, //Missed Giant: 1110,
|
|
1110, //Missed Giant: 11,
|
|
11102020, //Missed Giant: 1122,
|
|
500000000000000000000000000000000008000000000000,
|
|
|
|
10101110, //Missed Giant: 1110,
|
|
11111030, //Missed Giant: 1113,
|
|
33,
|
|
3330, //52
|
|
|
|
10101110, //Missed Giant: 1110,
|
|
1110, //Missed Giant: 11,
|
|
11102020, //Missed Giant: 1122,
|
|
600000000000000000000008000000000000000000000000,
|
|
|
|
3340,
|
|
3340,
|
|
500000000000000000000000000000000008000000000000,
|
|
7008, //60
|
|
#GOGOEND
|
|
|
|
10101110,
|
|
12,
|
|
10101110,
|
|
1110,
|
|
|
|
10102220,
|
|
12,
|
|
10101110,
|
|
1120, //68
|
|
|
|
1011,
|
|
10003300,
|
|
5,
|
|
000000000000000000000000000000000000000000000008,
|
|
|
|
0,
|
|
0,
|
|
0, //75
|
|
#END
|
|
|
|
|
|
COURSE:Easy
|
|
LEVEL:4
|
|
BALLOON:8,8
|
|
SCOREINIT:700
|
|
SCOREDIFF:245
|
|
|
|
#START
|
|
1110,
|
|
12,
|
|
1110,
|
|
12,
|
|
|
|
1110,
|
|
12,
|
|
1110,
|
|
12,
|
|
500000000000000000000000000000000000000000000008,
|
|
03, //10
|
|
|
|
1110,
|
|
1,
|
|
1110,
|
|
1,
|
|
|
|
2220,
|
|
1,
|
|
2220,
|
|
1, //18
|
|
|
|
1110,
|
|
11,
|
|
1110,
|
|
11,
|
|
|
|
2220,
|
|
11,
|
|
2220,
|
|
500000000000000000000000000008000000000000000000, //26
|
|
|
|
1111,
|
|
11,
|
|
500000000000000000000000000000000000000000000008,
|
|
0,
|
|
|
|
2222,
|
|
22,
|
|
500000000000000000000000000008000000000000000000,
|
|
33, //34
|
|
|
|
1111,
|
|
12,
|
|
7,
|
|
080000000000,
|
|
|
|
1110,
|
|
3,
|
|
1110,
|
|
7,
|
|
080000000000,
|
|
3, //44: Wii5 = giant note
|
|
|
|
#GOGOSTART
|
|
1110, //Missed Giant: 11,
|
|
1110,
|
|
1111, //Missed Giant: 11,
|
|
500000000000000000000000000008000000000000000000,
|
|
|
|
1110,
|
|
3330,
|
|
1110,
|
|
3330, //52
|
|
|
|
1110, //Missed Giant: 11,
|
|
1110,
|
|
2222, //Missed Giant: 22,
|
|
600000000000000000000000000008000000000000000000,
|
|
|
|
34,
|
|
34,
|
|
5,
|
|
000000000000000000000008000000000000000000000000, //60
|
|
#GOGOEND
|
|
|
|
1110,
|
|
1110,
|
|
2220,
|
|
22,
|
|
|
|
1110,
|
|
1110,
|
|
2220,
|
|
22, //68
|
|
|
|
1110,
|
|
33,
|
|
5,
|
|
000000000000000000000000000000000000000000000008,
|
|
|
|
0,
|
|
0,
|
|
0, //75
|
|
#END |