Files
ESE/07 Game Music/KAGEKIYO Genpei Touma Den Medley/KAGEKIYO Genpei Touma Den Medley Souuchi.tja
T
GanYiZhongandClaude Opus 5 7320a9448e Add TITLEZH_TW / SUBTITLEZH_TW (Traditional Chinese titles)
Add Traditional Chinese title (1276 charts) and subtitle (900 charts)
header fields. Header additions only; no chart data changed.

Co-Authored-By: Claude Opus 5 <noreply@anthropic.com>
2026-09-17 12:42:55 +08:00

2217 lines
26 KiB
Plaintext

//TJADB Project
TITLE:[Sou-uchi] KAGEKIYO
TITLEJA:【双打】 KAGEKIYO
TITLEZH:【双打】 KAGEKIYO
TITLEKO:【SouUchi】 KAGEKIYO
TITLEZH_TW:【雙打】 KAGEKIYO
SUBTITLE:--Yuuji Masubuchi/Genpei Touma Den Medley
SUBTITLEJA:源平討魔伝メドレー
SUBTITLEZH:源平讨魔传Medley
SUBTITLEZH_TW:--源平討魔伝組曲
BPM:130.81
WAVE:KAGEKIYO Genpei Touma Den Medley.ogg
OFFSET:-2.173
DEMOSTART:19.727
//shinuchi: -/-/-/-/1830
COURSE:Edit
LEVEL:10
STYLE:SINGLE
BALLOON:8
SCOREINIT:690,1890
SCOREDIFF:188
#START
300000000000000000000000600000000008000000000000,
#BPMCHANGE 126.65
1350,
#BPMCHANGE 133.8
0,
#BPMCHANGE 134.1
080000000000000000000000, //4
#BPMCHANGE 125.66
#SCROLL 1.06
00001111,
#BPMCHANGE 127.92
#SCROLL 1.04
20022000,
#BPMCHANGE 130.83
#SCROLL 1
0,
#MEASURE 2/4
#BPMCHANGE 131.71
0,
#MEASURE 4/4
#BPMCHANGE 130
1000200010112000,
700000000000000000000000008000000000100200000000, //10
#GOGOSTART
1011200010112000,
1011200000200020,
1000201110002011,
1000201011101110,
#MEASURE 2/4
3,
#GOGOEND
#MEASURE 4/4
0011201100112011,
0011201110101010,
1020110010201100,
1020110010101010,
#MEASURE 2/4
11101110, //20
#MEASURE 4/4
1001102010000000,
1100220011002220,
1000200011200000,
1100220011003000,
#GOGOSTART
1000201110002011,
1000201011101110,
1011200010112000,
1011201000200020,
#GOGOEND
#MEASURE 2/4
3, //29
#MEASURE 4/4
1001100110011020,
1001100110011020,
1001100110011020,
1001100010010020,
1000200012102000,
1000200012102000,
0000000022222000,
0000222210000000, //37
1020111010201110,
12021202,
1020111010201110,
12021202,
1020111010201110,
12021202,
1020111010201110,
0000111000001111,
1011,
1111000011110000,
2222000022220000,
#MEASURE 2/4
3, //49
#MEASURE 4/4
#GOGOSTART
1011200010112000,
1011200000200020,
1000201110002011,
1000201011101110,
#GOGOEND
#MEASURE 2/4
3,
#MEASURE 4/4
0011221100112211,
0011221110101010,
1020110010201100,
1020110010101010,
#MEASURE 2/4
11101110, //59
#MEASURE 4/4
1021100110011020,
1021100110011020,
1000200012102000,
1000200012102000,
1021100110011020,
1021100110011020,
00000022,
1000100010100300, //67
1001200012102000,
1001200012102000,
1021100110011020,
1021100110022020,
1001200012102000,
1001200012101000,
0010110000000010,
1100000000100300, //75
#GOGOSTART
1011200010112000,
1011200010003000,
1000201110002011,
1000201110000000,
1011110110003000,
10211030,
1011110110003000,
1011220210000000,
#GOGOEND
0,
0, //85
#END
STYLE:DOUBLE
BALLOON:8
SCOREINIT:690,1890
SCOREDIFF:188
#START P1
300000000000000000000000600000000008000000000000,
#BPMCHANGE 126.65
1350,
#BPMCHANGE 133.8
0,
#BPMCHANGE 134.1
080000000000000000000000, //4
#BPMCHANGE 125.66
#SCROLL 1.06
00001111,
#BPMCHANGE 127.92
#SCROLL 1.04
20022000,
#BPMCHANGE 130.83
#SCROLL 1
0,
#MEASURE 2/4
#BPMCHANGE 131.71
0,
#MEASURE 4/4
#BPMCHANGE 130
1000200010112000,
700000000000000000000000008000000000100200000000, //10
#GOGOSTART
1011200010112000,
1011200000200020,
1000201110002011,
1000201011101110,
#MEASURE 2/4
3,
#GOGOEND
#MEASURE 4/4
0011201100112011,
0011201110101010,
1020110010201100,
1020110010101010,
#MEASURE 2/4
11101110, //20
#MEASURE 4/4
1001102010000000,
1100220011002220,
1000200011200000,
1100220011003000,
#GOGOSTART
1000201110002011,
1000201011101110,
1011200010112000,
1011201000200020,
#GOGOEND
#MEASURE 2/4
3, //29
#MEASURE 4/4
1001100110011020,
1001100110011020,
1001100110011020,
1001100010010020,
1000200012102000,
1000200012102000,
0000000022222000,
0000222210000000, //37
1020111010201110,
12021202,
1020111010201110,
12021202,
1020111010201110,
12021202,
1020111010201110,
0000111000001111,
1011,
1111000011110000,
2222000022220000,
#MEASURE 2/4
3, //49
#MEASURE 4/4
#GOGOSTART
1011200010112000,
1011200000200020,
1000201110002011,
1000201011101110,
#GOGOEND
#MEASURE 2/4
3,
#MEASURE 4/4
0011221100112211,
0011221110101010,
1020110010201100,
1020110010101010,
#MEASURE 2/4
11101110, //59
#MEASURE 4/4
1021100110011020,
1021100110011020,
1000200012102000,
1000200012102000,
1021100110011020,
1021100110011020,
00000022,
1000100010100300, //67
1001200012102000,
1001200012102000,
1021100110011020,
1021100110022020,
1001200012102000,
1001200012101000,
0010110000000010,
1100000000100300, //75
#GOGOSTART
1011200010112000,
1011200010003000,
1000201110002011,
1000201110000000,
1011110110003000,
10211030,
1011110110003000,
1011220210000000,
#GOGOEND
0,
0, //85
#END
BALLOON:8
SCOREINIT:690,1890
SCOREDIFF:188
#START P2
600000000008000000000000300000000000000000000000,
#BPMCHANGE 126.65
1350,
#BPMCHANGE 133.8
0,
#BPMCHANGE 134.1
080000000000000000000000, //4
#BPMCHANGE 125.66
#SCROLL 1.06
0,
#BPMCHANGE 127.92
#SCROLL 1.04
0,
#BPMCHANGE 130.83
#SCROLL 01
10001111,
#MEASURE 2/4
#BPMCHANGE 131.71
2022,
#MEASURE 4/4
#BPMCHANGE 130
1000200010112000,
700000000000000000000000008000000000100200000000, //10
#GOGOSTART
1000201110002011,
1000201011101110,
1011200010112000,
1011200000200020,
#MEASURE 2/4
3,
#GOGOEND
#MEASURE 4/4
1020110010201100,
1020110010101010,
0011201100112011,
0011201110101010,
#MEASURE 2/4
11101110, //20
#MEASURE 4/4
1000200011200000,
1100220011002220,
1001102010000000,
1100220011003000,
#GOGOSTART
1011200010112000,
1011200000200020,
10211021,
1000201011101110,
#GOGOEND
#MEASURE 2/4
3, //29
#MEASURE 4/4
1000200012102000,
1000200012102000,
1000200012102000,
1000200010010020,
1001100110011020,
1001100110011020,
1111100000000011,
1110000000000000, //37
12021202,
1020111010201110,
12021202,
1020111011101110,
12021202,
1020111010201110,
12021202,
1110000011110000,
1011,
0000222200002222,
0000111100001110,
#MEASURE 2/4
3, //49
#MEASURE 4/4
#GOGOSTART
1000201110002011,
1000201011101110,
1011200010112000,
1011201011101110,
#GOGOEND
#MEASURE 2/4
3,
#MEASURE 4/4
1020110010201100,
1020110010101010,
0011221100112211,
0011221110101010,
#MEASURE 2/4
11101110, //59
#MEASURE 4/4
1000200012102000,
1000200012102000,
1021100110011020,
1021100110022020,
1000200012102000,
1000200012102000,
00000022,
1000100010100300, //67
1021100110011020,
1021100110011020,
1001200012102000,
1001200012102000,
1021100110011020,
1021100110011020,
0000000010110000,
0000101100100300, //75
#GOGOSTART
1000201110002011,
1000201110000000,
1011200010112000,
1011200010003000,
10211030,
1011110110003000,
10211030,
1011220210000000,
#GOGOEND
0,
0, //85
#END
COURSE:Oni
LEVEL:9
STYLE:SINGLE
BALLOON:
SCOREINIT:2140
SCOREDIFF:0
#START
600000000000000008000000000000000000000000000000,
#BPMCHANGE 126.65
3360,
#BPMCHANGE 133.8
0,
#BPMCHANGE 134.1
080000000000000000000000, //4
#BPMCHANGE 125.66
#SCROLL 1.02
0,
#BPMCHANGE 127.92
#SCROLL 1
0,
#BPMCHANGE 130.83
#SCROLL 0.98
20221111,
#MEASURE 2/4
#BPMCHANGE 131.71
#SCROLL 1
2022,
#MEASURE 4/4
#BPMCHANGE 130
3212,
0102010101010400, //10
#GOGOSTART
1212,
1000200011001100,
1011010110110101,
1011010100200020,
#MEASURE 2/4
40000111,
#GOGOEND
#MEASURE 4/4
0011001100110011,
0011001110102020,
1202,
00202211,
#MEASURE 2/4
22220000, //20
#MEASURE 4/4
0,
0001,
1001112210000000,
1100220011004000,
#GOGOSTART
1011010110110101,
1011010100200020,
1212,
1000200011001100,
#GOGOEND
#MEASURE 2/4
40222000, //29
#MEASURE 4/4
0000200202002000,
0000200202002000,
0000200202002000,
0000200202200220,
1001100010011010,
1001100010011011,
1001100010011002,
2000100110001100, //37
3010110010101100,
1010110010101100,
1010110010101100,
1010110011211000,
12121212,
12121212,
12121212,
0000012100110011,
1000000020001100,
3000001210000012,
1000001210001110,
#MEASURE 2/4
30100011, //49
#MEASURE 4/4
#GOGOSTART
1212,
1000200011001100,
1011010110110101,
1011010100200020,
#GOGOEND
#MEASURE 2/4
40000111,
#MEASURE 4/4
0011001100110011,
0011001110102020,
1212,
10202211,
#MEASURE 2/4
22220000, //59
#MEASURE 4/4
0020020202002020,
0020020202002020,
0020020202002020,
0020020202200202,
0020020202002020,
0020020202002020,
0020020202200202,
0202020202020300, //67
1001100010011000,
1001100010011000,
1001100010011000,
1001100010011000,
1001100010011000,
1001100010011000,
0220000121000012,
0000120000121000, //75
#GOGOSTART
1011010110110101,
1011010110003000,
1212,
1213,
1011010110003000,
1214,
1011010110003000,
11203000,
#GOGOEND
0,
0, //85
#END
STYLE:DOUBLE
BALLOON:
SCOREINIT:2140
SCOREDIFF:0
#START P1
600000000000000008000000000000000000000000000000,
#BPMCHANGE 126.65
3360,
#BPMCHANGE 133.8
0,
#BPMCHANGE 134.1
080000000000000000000000, //4
#BPMCHANGE 125.66
#SCROLL 1.02
0,
#BPMCHANGE 127.92
#SCROLL 1
0,
#BPMCHANGE 130.83
#SCROLL 0.98
20221111,
#MEASURE 2/4
#BPMCHANGE 131.71
#SCROLL 1
2022,
#MEASURE 4/4
#BPMCHANGE 130
3212,
0102010101010400, //10
#GOGOSTART
1212,
1000200011001100,
1011010110110101,
1011010100200020,
#MEASURE 2/4
40000111,
#GOGOEND
#MEASURE 4/4
0011001100110011,
0011001110102020,
1202,
00202211,
#MEASURE 2/4
22220000, //20
#MEASURE 4/4
0,
0001,
1001112210000000,
1100220011004000,
#GOGOSTART
1011010110110101,
1011010100200020,
1212,
1000200011001100,
#GOGOEND
#MEASURE 2/4
40222000, //29
#MEASURE 4/4
0000200202002000,
0000200202002000,
0000200202002000,
0000200202200220,
1001100010011010,
1001100010011011,
1001100010011002,
2000100110001100, //37
3010110010101100,
1010110010101100,
1010110010101100,
1010110011211000,
12121212,
12121212,
12121212,
0000012100110011,
1000000020001100,
3000001210000012,
1000001210001110,
#MEASURE 2/4
30100011, //49
#MEASURE 4/4
#GOGOSTART
1212,
1000200011001100,
1011010110110101,
1011010100200020,
#GOGOEND
#MEASURE 2/4
40000111,
#MEASURE 4/4
0011001100110011,
0011001110102020,
1212,
10202211,
#MEASURE 2/4
22220000, //59
#MEASURE 4/4
0020020202002020,
0020020202002020,
0020020202002020,
0020020202200202,
0020020202002020,
0020020202002020,
0020020202200202,
0202020202020300, //67
1001100010011000,
1001100010011000,
1001100010011000,
1001100010011000,
1001100010011000,
1001100010011000,
0220000121000012,
0000120000121000, //75
#GOGOSTART
1011010110110101,
1011010110003000,
1212,
1213,
1011010110003000,
1214,
1011010110003000,
11203000,
#GOGOEND
0,
0, //85
#END
BALLOON:
SCOREINIT:2140
SCOREDIFF:0
#START P2
000000000000000000000000600000000000000008000000,
#BPMCHANGE 126.65
3360,
#BPMCHANGE 133.8
0,
#BPMCHANGE 134.1
080000000000000000000000, //4
#BPMCHANGE 125.66
#SCROLL 1.02
20221111,
#BPMCHANGE 127.92
#SCROLL 1
20022000,
#BPMCHANGE 130.83
#SCROLL 0.98
0,
#MEASURE 2/4
#BPMCHANGE 131.71
#SCROLL 1
0,
#MEASURE 4/4
#BPMCHANGE 130
0011000001110000,
1010010100101000, //10
#GOGOSTART
1011010110110101,
1011010100200020,
1212,
1000200011001100,
#MEASURE 2/4
40222000,
#GOGOEND
#MEASURE 4/4
1202,
00202211,
0011001100110011,
0011001110102020,
#MEASURE 2/4
00001111, //20
#MEASURE 4/4
1001112210000000,
1100220011001000,
0,
0004,
#GOGOSTART
1212,
1000200011001100,
1011010110110101,
1011010100200020,
#GOGOEND
#MEASURE 2/4
40000111, //29
#MEASURE 4/4
1001100010011010,
1001100010011011,
1001100010011010,
1001100010011001,
0000200202002000,
0000200202002000,
0000200202200010,
0110022000110011, //37
12121212,
12121212,
12121212,
1020102000000121,
0010110010101100,
1010110010101100,
1010110010101100,
1121100011001100,
30002001,
0011200000112000,
0011200002100000,
#MEASURE 2/4
30101100, //49
#MEASURE 4/4
#GOGOSTART
1011010110110101,
1011010100200020,
1212,
1000200011001100,
#GOGOEND
#MEASURE 2/4
40222000,
#MEASURE 4/4
1212,
10202211,
0011001100110011,
0011001110102020,
#MEASURE 2/4
00001111, //59
#MEASURE 4/4
1001100010011000,
1001100010011000,
1001100010011000,
1001100010011000,
1001100010011000,
1001100010011000,
1001101010011010,
1000100010100400, //67
0020020202002020,
0020020202002020,
0020020202002020,
0020020202200222,
0020020202002020,
0020020202002022,
0000110000012100,
0121000121000400, //75
#GOGOSTART
1212,
1213,
1011010110110101,
1011010110003000,
1214,
1011010110003000,
1214,
1011020110000000,
#GOGOEND
0,
0, //85
#END
COURSE:Hard
LEVEL:7
STYLE:SINGLE
BALLOON:
SCOREINIT:2850
SCOREDIFF:0
#START
600000000000000008000000000000000000000000000000,
#BPMCHANGE 126.65
3360,
#BPMCHANGE 133.8
0,
#BPMCHANGE 134.1
080000000000000000000000, //4
#BPMCHANGE 125.66
#SCROLL 1.02
0,
#BPMCHANGE 127.92
#SCROLL 1
0,
#BPMCHANGE 130.83
#SCROLL 0.98
20221111,
#MEASURE 2/4
#BPMCHANGE 131.71
#SCROLL 1
2022,
#MEASURE 4/4
#BPMCHANGE 130
3212,
0002000001010400, //10
#GOGOSTART
1212,
1000200011001100,
1011000010110000,
1011000000100010,
#MEASURE 2/4
4,
#GOGOEND
#MEASURE 4/4
1011001000110010,
0011001010101010,
0202,
00201111,
#MEASURE 2/4
22200000, //20
#MEASURE 4/4
3,
0001,
1001102010000000,
1100220011004000,
#GOGOSTART
1011000010110000,
1011000000100010,
1212,
1000200011001100,
#GOGOEND
#MEASURE 2/4
4, //29
#MEASURE 4/4
0000000202000000,
0000000202000000,
0000000202000000,
0000000200200200,
1001100010011010,
1001100010011011,
1001100011011000,
0000110110000000, //37
3000110010001100,
1000110010001100,
1000110010001100,
1000110011100000,
02020202,
02020202,
02020202,
000000000000100100100000000000500008000000500008,
0021,
1000000210000002,
1000000210001110,
#MEASURE 2/4
3, //49
#MEASURE 4/4
#GOGOSTART
1212,
1000200011001100,
1011000010110000,
1011000000100010,
#GOGOEND
#MEASURE 2/4
4,
#MEASURE 4/4
1011001100110011,
0011001010101010,
1202,
00201111,
#MEASURE 2/4
22200000, //59
#MEASURE 4/4
0000000202000020,
0000000202000020,
0000000202000020,
0000000202000202,
0000000202000020,
0000000202000020,
0000000202000202,
0000020202020400, //67
1001100010011000,
1001100010011000,
1001100010011000,
1001100010011000,
1001100010011000,
1001100010011000,
0110000022000022,
0000220000110000, //75
#GOGOSTART
1011000010110000,
1011000010003000,
1212,
1213,
1011010010003000,
1213,
1011010010003000,
1230,
#GOGOEND
0,
0, //85
#END
STYLE:DOUBLE
BALLOON:
SCOREINIT:2850
SCOREDIFF:0
#START P1
600000000000000008000000000000000000000000000000,
#BPMCHANGE 126.65
3360,
#BPMCHANGE 133.8
0,
#BPMCHANGE 134.1
080000000000000000000000, //4
#BPMCHANGE 125.66
#SCROLL 1.02
0,
#BPMCHANGE 127.92
#SCROLL 1
0,
#BPMCHANGE 130.83
#SCROLL 0.98
20221111,
#MEASURE 2/4
#BPMCHANGE 131.71
#SCROLL 1
2022,
#MEASURE 4/4
#BPMCHANGE 130
3212,
0002000001010400, //10
#GOGOSTART
1212,
1000200011001100,
1011000010110000,
1011000000100010,
#MEASURE 2/4
4,
#GOGOEND
#MEASURE 4/4
1011001000110010,
0011001010101010,
0202,
00201111,
#MEASURE 2/4
22200000, //20
#MEASURE 4/4
3,
0001,
1001102010000000,
1100220011004000,
#GOGOSTART
1011000010110000,
1011000000100010,
1212,
1000200011001100,
#GOGOEND
#MEASURE 2/4
4, //29
#MEASURE 4/4
0000000202000000,
0000000202000000,
0000000202000000,
0000000200200200,
1001100010011010,
1001100010011011,
1001100011011000,
0000110110000000, //37
3000110010001100,
1000110010001100,
1000110010001100,
1000110011100000,
02020202,
02020202,
02020202,
000000000000100100100000000000500008000000500008,
0021,
1000000210000002,
1000000210001110,
#MEASURE 2/4
3, //49
#MEASURE 4/4
#GOGOSTART
1212,
1000200011001100,
1011000010110000,
1011000000100010,
#GOGOEND
#MEASURE 2/4
4,
#MEASURE 4/4
1011001100110011,
0011001010101010,
1202,
00201111,
#MEASURE 2/4
22200000, //59
#MEASURE 4/4
0000000202000020,
0000000202000020,
0000000202000020,
0000000202000202,
0000000202000020,
0000000202000020,
0000000202000202,
0000020202020400, //67
1001100010011000,
1001100010011000,
1001100010011000,
1001100010011000,
1001100010011000,
1001100010011000,
0110000022000022,
0000220000110000, //75
#GOGOSTART
1011000010110000,
1011000010003000,
1212,
1213,
1011010010003000,
1213,
1011010010003000,
1230,
#GOGOEND
0,
0, //85
#END
BALLOON:
SCOREINIT:2850
SCOREDIFF:0
#START P2
000000000000000000000000600000000000000008000000,
#BPMCHANGE 126.65
3360,
#BPMCHANGE 133.8
0,
#BPMCHANGE 134.1
080000000000000000000000, //4
#BPMCHANGE 125.66
#SCROLL 1.02
20221111,
#BPMCHANGE 127.92
#SCROLL 1
20022000,
#BPMCHANGE 130.83
#SCROLL 0.98
0,
#MEASURE 2/4
#BPMCHANGE 131.71
#SCROLL 1
0,
#MEASURE 4/4
#BPMCHANGE 130
3011000000110000,
1010010100001000, //10
#GOGOSTART
1011000010110000,
1011000000100010,
1212,
1000200011001100,
#MEASURE 2/4
4,
#GOGOEND
#MEASURE 4/4
0202,
00201111,
0011001000110010,
0011001010101010,
#MEASURE 2/4
00001110, //20
#MEASURE 4/4
1001102010000000,
1100220011001000,
0,
0004,
#GOGOSTART
1212,
1000200011001100,
1011000010110000,
1011000000100010,
#GOGOEND
#MEASURE 2/4
4, //29
#MEASURE 4/4
1001100010011010,
1001100010011011,
1001100010011010,
1001100020020020,
0000000202000000,
0000000202000000,
0000000000000011,
0110000000000000, //37
32020202,
02020202,
02020202,
0020002000001110,
1000110010001100,
1000110010001100,
1000110010001100,
100100100000000000000000500008000000500008000000,
3021,
01200120,
01200100,
#MEASURE 2/4
3, //49
#MEASURE 4/4
#GOGOSTART
1011000010110000,
1011000000100010,
1212,
1000200011001100,
#GOGOEND
#MEASURE 2/4
4,
#MEASURE 4/4
1202,
00201111,
1011001100110011,
0011001010101010,
#MEASURE 2/4
00001110, //59
#MEASURE 4/4
1001100010011000,
1001100010011000,
1001100010011000,
1001100010011000,
1001100010011000,
1001100010011000,
1001100010011000,
1000100010100400, //67
0000000202000020,
0000000202000020,
0000000202000020,
0000000202000202,
0000000202000020,
0000000202000020,
0000110000022000,
0220000110000400, //75
#GOGOSTART
1212,
1213,
1011000010110000,
1011000010003000,
1213,
1011010010003000,
1213,
1011020110000000,
#GOGOEND
0,
0, //85
#END
COURSE:Normal
LEVEL:7
STYLE:SINGLE
BALLOON:
SCOREINIT:3720
SCOREDIFF:0
#START
600000000000000008000000000000000000000000000000,
#BPMCHANGE 126.65
3360,
#BPMCHANGE 133.8
0,
#BPMCHANGE 134.1
080000000000000000000000, //4
#BPMCHANGE 125.66
#SCROLL 1.02
0,
#BPMCHANGE 127.92
#SCROLL 1
0,
#BPMCHANGE 130.83
#SCROLL 0.98
20001110,
#MEASURE 2/4
#BPMCHANGE 131.71
#SCROLL 1
22,
#MEASURE 4/4
#BPMCHANGE 130
3212,
0000000000000400, //10
#GOGOSTART
1212,
1211,
11001100,
11000101,
#MEASURE 2/4
4,
#GOGOEND
#MEASURE 4/4
11010101,
01011111,
0202,
00201111,
#MEASURE 2/4
2200, //20
#MEASURE 4/4
3,
0001,
10112000,
1100110011004000,
#GOGOSTART
11001100,
11000101,
1212,
1211,
#GOGOEND
#MEASURE 2/4
4, //29
#MEASURE 4/4
0000000200000000,
0000000200000000,
0000000200000000,
0000000200000000,
1001100010011000,
1001100010011010,
100000000100100000000000500000000008000000000000,
000000000000500000000008000000000000000000000000, //37
3000110010001100,
1000110010001100,
1000110010001100,
1000110011002000,
02000200,
02000200,
02000200,
000000000000500000000008000000500008000000500008,
0021,
1000000010000001,
1011,
#MEASURE 2/4
3, //49
#MEASURE 4/4
#GOGOSTART
1212,
1211,
11001100,
11000101,
#GOGOEND
#MEASURE 2/4
4,
#MEASURE 4/4
1010001100100011,
01011111,
0202,
00201111,
#MEASURE 2/4
2, //59
#MEASURE 4/4
0000000200000020,
0000000200000020,
0000000200000020,
0000000200000002,
0000000200000020,
0000000200000020,
0000000200000002,
0000000200000400, //67
1001100010011000,
1001100010011000,
1001100010011000,
1001100010011000,
1001100010011000,
1001100010011000,
02001001,
0000100000110000, //75
#GOGOSTART
11001100,
11001030,
1212,
1213,
1010010010003000,
1213,
1010010010003000,
1230,
#GOGOEND
0,
0, //85
#END
STYLE:DOUBLE
BALLOON:
SCOREINIT:3720
SCOREDIFF:0
#START P1
600000000000000008000000000000000000000000000000,
#BPMCHANGE 126.65
3360,
#BPMCHANGE 133.8
0,
#BPMCHANGE 134.1
080000000000000000000000, //4
#BPMCHANGE 125.66
#SCROLL 1.02
0,
#BPMCHANGE 127.92
#SCROLL 1
0,
#BPMCHANGE 130.83
#SCROLL 0.98
20001110,
#MEASURE 2/4
#BPMCHANGE 131.71
#SCROLL 1
22,
#MEASURE 4/4
#BPMCHANGE 130
3212,
0000000000000400, //10
#GOGOSTART
1212,
1211,
11001100,
11000101,
#MEASURE 2/4
4,
#GOGOEND
#MEASURE 4/4
11010101,
01011111,
0202,
00201111,
#MEASURE 2/4
2200, //20
#MEASURE 4/4
3,
0001,
10112000,
1100110011004000,
#GOGOSTART
11001100,
11000101,
1212,
1211,
#GOGOEND
#MEASURE 2/4
4, //29
#MEASURE 4/4
0000000200000000,
0000000200000000,
0000000200000000,
0000000200000000,
1001100010011000,
1001100010011010,
100000000100100000000000500000000008000000000000,
000000000000500000000008000000000000000000000000, //37
3000110010001100,
1000110010001100,
1000110010001100,
1000110011002000,
02000200,
02000200,
02000200,
000000000000500000000008000000500008000000500008,
0021,
1000000010000001,
1011,
#MEASURE 2/4
3, //49
#MEASURE 4/4
#GOGOSTART
1212,
1211,
11001100,
11000101,
#GOGOEND
#MEASURE 2/4
4,
#MEASURE 4/4
1010001100100011,
01011111,
0202,
00201111,
#MEASURE 2/4
2, //59
#MEASURE 4/4
0000000200000020,
0000000200000020,
0000000200000020,
0000000200000002,
0000000200000020,
0000000200000020,
0000000200000002,
0000000200000400, //67
1001100010011000,
1001100010011000,
1001100010011000,
1001100010011000,
1001100010011000,
1001100010011000,
02001001,
0000100000110000, //75
#GOGOSTART
11001100,
11001030,
1212,
1213,
1010010010003000,
1213,
1010010010003000,
1230,
#GOGOEND
0,
0, //85
#END
BALLOON:
SCOREINIT:3720
SCOREDIFF:0
#START P2
000000000000000000000000600000000000000008000000,
#BPMCHANGE 126.65
3360,
#BPMCHANGE 133.8
0,
#BPMCHANGE 134.1
080000000000000000000000, //4
#BPMCHANGE 125.66
#SCROLL 1.02
20001110,
#BPMCHANGE 127.92
#SCROLL 1
20022000,
#BPMCHANGE 130.83
#SCROLL 0.98
0,
#MEASURE 2/4
#BPMCHANGE 131.71
#SCROLL 1
0,
#MEASURE 4/4
#BPMCHANGE 130
31000100,
500000000000000000000000000000000000008000000000, //10
#GOGOSTART
11001100,
11000101,
1212,
1211,
#MEASURE 2/4
4,
#GOGOEND
#MEASURE 4/4
0202,
00201111,
01010101,
01011111,
#MEASURE 2/4
0022, //20
#MEASURE 4/4
10112000,
1100110011001000,
0,
0004,
#GOGOSTART
1212,
1211,
11001100,
11000101,
#GOGOEND
#MEASURE 2/4
4, //29
#MEASURE 4/4
1001100010011000,
1001100010011010,
1001100010011000,
1001100020020020,
0000000200000000,
0000000200000000,
00000005,
000008000000000000000000000000000000000000000000, //37
02000200,
02000200,
02000200,
02000020,
1000110010001100,
1000110010001100,
1000110010001100,
500000000008000000000000500008000000500008000000,
3021,
01200120,
01200100,
#MEASURE 2/4
3, //49
#MEASURE 4/4
#GOGOSTART
11001100,
11000101,
1212,
1211,
#GOGOEND
#MEASURE 2/4
4,
#MEASURE 4/4
0202,
00201111,
0010001100100011,
01011111,
#MEASURE 2/4
0, //59
#MEASURE 4/4
1001100010011000,
1001100010011000,
1001100010011000,
1001100010011000,
1001100010011000,
1001100010011000,
1001100010011000,
1000100010100400, //67
0000000200000020,
0000000200000020,
0000000200000020,
0000000200000002,
0000000200000020,
0000000200000020,
0000020000010000,
0100000100000400, //75
#GOGOSTART
1212,
1213,
11001100,
11001030,
1213,
1010010010003000,
1213,
1010020030000000,
#GOGOEND
0,
0, //85
#END
COURSE:Easy
LEVEL:5
STYLE:SINGLE
BALLOON:
SCOREINIT:5090
SCOREDIFF:0
#START
600000000000000008000000000000000000000000000000,
#BPMCHANGE 126.65
3360,
#BPMCHANGE 133.8
0,
#BPMCHANGE 134.1
080000000000000000000000, //4
#BPMCHANGE 125.66
#SCROLL 1.02
0,
#BPMCHANGE 127.92
#SCROLL 1
0,
#BPMCHANGE 130.83
#SCROLL 0.98
2011,
#MEASURE 2/4
#BPMCHANGE 131.71
#SCROLL 1
22,
#MEASURE 4/4
#BPMCHANGE 130
0202,
0000000000000400, //10
#GOGOSTART
1212,
1210,
01000100,
01000000,
#MEASURE 2/4
4,
#GOGOEND
#MEASURE 4/4
11000100,
01001111,
0202,
00201111,
#MEASURE 2/4
0, //20
#MEASURE 4/4
3,
0001,
10112000,
1214,
#GOGOSTART
01000100,
01000000,
1212,
1210,
#GOGOEND
#MEASURE 2/4
4, //29
#MEASURE 4/4
0,
0,
0,
02,
1001100010011000,
1001100010011010,
100000000100100000000000500000000008000000000000,
000000000000500000000008000000000000000000000000, //37
3111,
1111,
1111,
100000000000100000000000500000000008000000000000,
02000200,
02000200,
02000200,
000000000000500000000008000000500008000000500008,
0021,
11,
1011,
#MEASURE 2/4
3, //49
#MEASURE 4/4
#GOGOSTART
1212,
1210,
01000100,
01000000,
#GOGOEND
#MEASURE 2/4
4,
#MEASURE 4/4
11000100,
01001111,
0202,
00201111,
#MEASURE 2/4
0, //59
#MEASURE 4/4
0,
00000002,
0,
0000000000000002,
0,
00000002,
0,
0000000000000400, //67
1001100010011000,
1001100010011000,
1001100010011000,
1001100010011000,
1001100010011000,
1001100010011000,
02001001,
00100100, //75
#GOGOSTART
01000100,
01000030,
1212,
1213,
01000030,
1213,
01000030,
1230,
#GOGOEND
0,
0, //85
#END
STYLE:DOUBLE
BALLOON:
SCOREINIT:5090
SCOREDIFF:0
#START P1
600000000000000008000000000000000000000000000000,
#BPMCHANGE 126.65
3360,
#BPMCHANGE 133.8
0,
#BPMCHANGE 134.1
080000000000000000000000, //4
#BPMCHANGE 125.66
#SCROLL 1.02
0,
#BPMCHANGE 127.92
#SCROLL 1
0,
#BPMCHANGE 130.83
#SCROLL 0.98
2011,
#MEASURE 2/4
#BPMCHANGE 131.71
#SCROLL 1
22,
#MEASURE 4/4
#BPMCHANGE 130
0202,
0000000000000400, //10
#GOGOSTART
1212,
1210,
01000100,
01000000,
#MEASURE 2/4
4,
#GOGOEND
#MEASURE 4/4
11000100,
01001111,
0202,
00201111,
#MEASURE 2/4
0, //20
#MEASURE 4/4
3,
0001,
10112000,
1214,
#GOGOSTART
01000100,
01000000,
1212,
1210,
#GOGOEND
#MEASURE 2/4
4, //29
#MEASURE 4/4
0,
0,
0,
02,
1001100010011000,
1001100010011010,
100000000100100000000000500000000008000000000000,
000000000000500000000008000000000000000000000000, //37
3111,
1111,
1111,
100000000000100000000000500000000008000000000000,
02000200,
02000200,
02000200,
000000000000500000000008000000500008000000500008,
0021,
11,
1011,
#MEASURE 2/4
3, //49
#MEASURE 4/4
#GOGOSTART
1212,
1210,
01000100,
01000000,
#GOGOEND
#MEASURE 2/4
4,
#MEASURE 4/4
11000100,
01001111,
0202,
00201111,
#MEASURE 2/4
0, //59
#MEASURE 4/4
0,
00000002,
0,
0000000000000002,
0,
00000002,
0,
0000000000000400, //67
1001100010011000,
1001100010011000,
1001100010011000,
1001100010011000,
1001100010011000,
1001100010011000,
02001001,
00100100, //75
#GOGOSTART
01000100,
01000030,
1212,
1213,
01000030,
1213,
01000030,
1230,
#GOGOEND
0,
0, //85
#END
BALLOON:
SCOREINIT:5090
SCOREDIFF:0
#START P2
000000000000000000000000600000000000000008000000,
#BPMCHANGE 126.65
3360,
#BPMCHANGE 133.8
0,
#BPMCHANGE 134.1
080000000000000000000000, //4
#BPMCHANGE 125.66
#SCROLL 1.02
2011,
#BPMCHANGE 127.92
#SCROLL 1
22,
#BPMCHANGE 130.83
#SCROLL 0.98
0,
#MEASURE 2/4
#BPMCHANGE 131.71
#SCROLL 1
0,
#MEASURE 4/4
#BPMCHANGE 130
31,
500000000000000000000000000000000000008000000000, //10
#GOGOSTART
01000100,
01000000,
1212,
1210,
#MEASURE 2/4
4,
#GOGOEND
#MEASURE 4/4
0202,
00201111,
01000100,
01001111,
#MEASURE 2/4
0, //20
#MEASURE 4/4
30112000,
1211,
0,
0004,
#GOGOSTART
1212,
1210,
01000100,
01000000,
#GOGOEND
#MEASURE 2/4
4, //29
#MEASURE 4/4
1001100010011000,
1001100010011010,
1001100010011000,
1001100020000000,
0,
0,
00000005,
000008000000000000000000000000000000000000000000, //37
02000200,
02000200,
02000200,
02000010,
1111,
1111,
1111,
500000000008000000000000500008000000500008000000,
3021,
01200120,
01200100,
#MEASURE 2/4
3, //49
#MEASURE 4/4
#GOGOSTART
01000100,
01000000,
1212,
1210,
#GOGOEND
#MEASURE 2/4
4,
#MEASURE 4/4
0202,
00201111,
01000100,
01001111,
#MEASURE 2/4
0, //59
#MEASURE 4/4
1001100010011000,
1001100010011000,
1001100010011000,
1001100010011000,
1001100010011000,
1001100010011000,
1001100010011000,
1000100010100400, //67
0,
00000002,
0,
0000000000000002,
0,
00000002,
0000020000010000,
0100000100000400, //75
#GOGOSTART
1212,
1213,
01000100,
01000030,
1213,
01000030,
1213,
0010020030000000,
#GOGOEND
0,
0, //85
#END