Files
ESE/07 Game Music/Monster Hunter 3 Ultimate Medley/Monster Hunter 3 Ultimate Medley.tja
T
2026-09-09 16:46:55 -04:00

1369 lines
32 KiB
Plaintext

//TJADB Project
TITLE:Monster Hunter 3 Ultimate Medley
TITLEJA:モンスターハンター3(トライ)G メドレー
SUBTITLE:--Akihiko Narita/Monster Hunter 3 Ultimate
BPM:98.48
WAVE:Monster Hunter 3 Ultimate Medley.ogg
OFFSET:-2.512
DEMOSTART:2.512
SCENEPRESET:MH3G
COURSE:Oni
LEVEL:7
BALLOON:10,10,15
SCOREINIT:440
SCOREDIFF:105
#START
#GOGOSTART
#SCROLL 1.05
100000101000500000000008
#BPMCHANGE 107.48
#SCROLL 0.97
000010001000200010001000,
#BPMCHANGE 103.47
#SCROLL 1
500000000008000010001000
#BPMCHANGE 104.86
#SCROLL 0.99
100000000000200000000000,
#BPMCHANGE 104.58
100010001000000010001000
#BPMCHANGE 104.87
100000000000
#BPMCHANGE 102.65
#SCROLL 1.01
200000000000,
#BPMCHANGE 97.98
#SCROLL 1.06
700000000000
#BPMCHANGE 106.01
#SCROLL 0.98
000000000000
#BPMCHANGE 105.44
000000000000800000000000,
#BPMCHANGE 97.98
#SCROLL 1.06
100000101000
#BPMCHANGE 108.09
#SCROLL 0.96
500000000008
#BPMCHANGE 101.83
#SCROLL 1.02
000010001000
#BPMCHANGE 114.1
#SCROLL 0.91
200010001000,
#BPMCHANGE 104.59
#SCROLL 0.99
500000000008000010001000
#BPMCHANGE 102.13
#SCROLL 1.02
100000000000200000000000,
#BPMCHANGE 106.25
#SCROLL 0.98
100010001000000010001000
#BPMCHANGE 108.03
#SCROLL 0.96
100000000000200000000000,
#BPMCHANGE 91.18
#SCROLL 1.14
700000000000
#GOGOEND
#BPMCHANGE 110.86
#SCROLL 0.94
000000000000
#BPMCHANGE 112.14
#SCROLL 0.93
000000000000
#BPMCHANGE 102.37
#SCROLL 1.01
800000000000,
#BPMCHANGE 92.17
#SCROLL 1.58
300000000000000000000000000000000000000000000000,
#BPMCHANGE 95.9
#SCROLL 1.52
000000000000000000000000000000000000000000000000,
#BPMCHANGE 94.91
#SCROLL 1.54
000000000000000000000000000000000000000000000000,
#BPMCHANGE 149.15
#SCROLL 0.98
300000000000200020002000100010001000200020002000,
#MEASURE 3/4
#BPMCHANGE 152.9
#SCROLL 0.95
100010001000
#BPMCHANGE 147.86
#SCROLL 0.98
200020002000
#BPMCHANGE 143.55
#SCROLL 1.01
100010001000,
#MEASURE 4/4
#BPMCHANGE 146.61
#SCROLL 0.99
300000000000400000000000
#BPMCHANGE 144.055
#SCROLL 1.01
300000000000400000000000,
#MEASURE 2/4
#BPMCHANGE 139.91
#SCROLL 1.04
300000003000000030000000,
#MEASURE 4/4
#BPMCHANGE 147.07
#SCROLL 1
400000000100100000100000200000100100200000200000,
#BPMCHANGE 146.57
100000000100100000100000200000200200100000200000,
100000000100100000100000200000100100200000200000,
#BPMCHANGE 147
100000000100100000100000200000200200100000200000,
300000000300000000300000400000200200100100100000,
#BPMCHANGE 146.67
300000000300000000300000400000200200100100100000,
300000000300000000400000000000100100200000100000,
#BPMCHANGE 147.39
#SCROLL 0.99
300000001000100010002000200020001000200010002000,
#BPMCHANGE 148.72
#SCROLL 0.98
300000000300000000400000000000100000200200100000,
#BPMCHANGE 145.19
#SCROLL 1.01
100000000100100000100000200000200200100000200000,
#BPMCHANGE 146.61
#SCROLL 1
100000000100100000100000200000100100200000200000,
#BPMCHANGE 149.27
#SCROLL 0.98
100000000100100000100000200000200200100000200000,
#BPMCHANGE 145.56
#SCROLL 1.01
100000000200100000200000100000000200100000200000,
#BPMCHANGE 147.66
#SCROLL 0.99
100000000100100000100000200000100100200000200000,
#BPMCHANGE 146.35
#SCROLL 1
100000000200100000200000100000000200100000200000,
#MEASURE 3/4
#BPMCHANGE 145.92
300000000000400000000000400000000000,
#BPMCHANGE 146.96
300000000000200020002000100010001000,
#BPMCHANGE 145.92
300000000000400000000000400000000000,
#BPMCHANGE 152.56
#SCROLL 0.96
700000000000000000000000000000000000,
#MEASURE 5/4
#BPMCHANGE 148.99
#SCROLL 0.98
000000000000
#BPMCHANGE 145.38
#SCROLL 1.01
000000000000000000000000800000000000000000000000,
#MEASURE 4/4
#BPMCHANGE 143.93
#SCROLL 1
300000000000100000000000100000100000100000300000,
#BPMCHANGE 144.43
#SCROLL 0.99
000000300000000000100000200200200000200000000000,
#BPMCHANGE 142.07
#SCROLL 1.01
300000000000100000000000100000100000100000400000,
#BPMCHANGE 144.43
#SCROLL 0.99
000000400000000000100000200100100000200000000000,
#BPMCHANGE 143.93
#SCROLL 1
300000000000100000000000100000100000100000300000,
#BPMCHANGE 143.8
000000300000000000100000200200200000200000000000,
#BPMCHANGE 144.81
#SCROLL 0.99
300000000000100000000000100000100000100000400000,
#BPMCHANGE 144.62
000000400000000000100000200100100000200000000000,
#GOGOSTART
#BPMCHANGE 144.24
300000100100100000200000100100100000200000300000,
#BPMCHANGE 143.93
#SCROLL 1
100000100100200000200000100100200000200000300000,
100000100100100000200000100100100000200000300000,
100000100100200000100000100100200000300000000000,
#BPMCHANGE 144.81
#SCROLL 0.99
300000100100100000200000100100100000200000300000,
100000100100200000200000100100200000200000300000,
#BPMCHANGE 143.31
#SCROLL 1
100000100100100000200000100100100000200000300000,
100000100100200000400000000000000000400000000000,
#GOGOEND
#BPMCHANGE 143.8
100000100000200000000000100000100000000000200000,
200100200000200000200100200000200200200000000000,
#BPMCHANGE 144.05
#SCROLL 0.99
100000100000200000000000100000100000000000200000,
200100200000200000200100200000200200200000000000,
#MEASURE 3/4
#BPMCHANGE 143.18
#SCROLL 1
300000300000000000100000100100100000,
200000100100200000200000100100100000,
#BPMCHANGE 143.68
200000100100200000200000100100100000,
200000100100100000200000000000200000,
#BPMCHANGE 144.37
#SCROLL 0.99
300000300000000000100000100100100000,
200000200100100000200000100100100000,
200000200100100000200000100100100000,
200000100100100000200000000000000000,
#GOGOSTART
#BPMCHANGE 144.044
300000300000000000100000100100100000,
200000100100200000200000100100100000,
200000100100200000200000100100100000,
200000100100100000200000000000200000,
100000100000000000100000100100100000,
#BPMCHANGE 143.77
#SCROLL 1
200000200100100000200000100100100000,
200000200100100000200000100100100000,
200000000000100000200000000000000000,
#GOGOEND
#MEASURE 4/4
#BPMCHANGE 145.64
#SCROLL 0.98
400000000000000000000000000000000000000000000000,
#BPMCHANGE 144.75
#SCROLL 0.99
000000000000000000000000000000000000000000000000,
#BPMCHANGE 142.69
#SCROLL 1
200200100000200200100000200200100000200200100000,
#BPMCHANGE 143.43
200200100000200000100000200200100100200200100100,
#BPMCHANGE 132.3
#SCROLL 1.08
000000000000000000000000000000000000000000000000,
#BPMCHANGE 103.36
#SCROLL 1.04
000000000000
#BPMCHANGE 112.35
#SCROLL 0.96
000000000000000000000000000000000000,
#MEASURE 3/4
#BPMCHANGE 106.56
#SCROLL 1.01
000000000000000000000000000000000000,
#BPMCHANGE 108.23
#SCROLL 1
000000000000000000000000000000000000,
000000000000000000000000000000000000,
#BPMCHANGE 111.94
#SCROLL 0.96
100000100100100000100000100000200000,
#BPMCHANGE 114.42
#SCROLL 0.94
100000100100100000100000100000200000,
#BPMCHANGE 108.8
#SCROLL 0.99
100000100100100000100000100000200000,
#BPMCHANGE 103.71
#SCROLL 1.04
100000100100100000100000000000100000,
#BPMCHANGE 108.42
#SCROLL 0.99
400000000000000000200000100100100000,
#BPMCHANGE 109.57
#SCROLL 0.98
200000000000100000200100100000200000,
#BPMCHANGE 106.01
#SCROLL 1.02
200000000000100000200100100000100000,
#BPMCHANGE 107.11
#SCROLL 1.01
200000100100200000200000000000100000,
#BPMCHANGE 110.74
#SCROLL 0.97
200000000000100000200000100100100000,
#BPMCHANGE 106.92
#SCROLL 1.01
200000000000100000200100100000200000,
#BPMCHANGE 108.61
#SCROLL 0.99
200000000000100000200100100000100000,
#BPMCHANGE 109.91
#SCROLL 0.98
200000100100100000200000000000000000,
#BPMCHANGE 108.47
#SCROLL 0.99
500000000000000000000080000000000000,
#BPMCHANGE 110.15
#SCROLL 0.98
100000000000100000200100100000100000,
#BPMCHANGE 106.19
#SCROLL 1.01
500000000000000000000080000000000000,
#BPMCHANGE 108.04
#SCROLL 1
100000000000100000200100100000100000,
#BPMCHANGE 107.11
#SCROLL 1.01
300000000000300000400000000000000000,
#BPMCHANGE 106.37
300000000000300000300000000000000000,
#BPMCHANGE 104.76
#SCROLL 1.03
300000000000300000400000000000000000,
#BPMCHANGE 107.29
#SCROLL 1
300000000000400000400000000000000000,
#BPMCHANGE 110.55
#SCROLL 0.97
500000000000000000000080000000000000,
300000000000000000000000000000000000,
#BPMCHANGE 120.77
#SCROLL 0.89
000000000000000000000000000000000000,
#GOGOSTART
#MEASURE 4/4
#BPMCHANGE 142.69
#SCROLL 0.99
200000000000100000000000200000000000100000000000,
#BPMCHANGE 143.06
200000000000100000100000000000100000200000100000,
#BPMCHANGE 141.38
#SCROLL 1
200000000000100000100000000000100000200000100000,
#BPMCHANGE 141.5
200100200000100100200000200100200000100100200000,
#BPMCHANGE 142.25
200000200000100000100000200000000000000000000000,
#MEASURE 15/16
000000000000
#BPMCHANGE 139.29
#SCROLL 1.02
000000000000
#BPMCHANGE 148.11
#SCROLL 0.96
300000000000000000000,
#MEASURE 4/4
#BPMCHANGE 141.75
#SCROLL 1
400000100200000200100000400000000000400000000000,
#GOGOEND
#END
COURSE:Hard
LEVEL:6
BALLOON:8,8,8,15,18
SCOREINIT:490
SCOREDIFF:120
#START
#GOGOSTART
300000000000600000000000
#BPMCHANGE 107.48
#SCROLL 0.91
000000000008000000000000,
#BPMCHANGE 103.47
#SCROLL 0.95
300000000000000010001000
#BPMCHANGE 104.86
#SCROLL 0.94
100000000000200000000000,
#BPMCHANGE 104.58
#SCROLL 0.94
100010001000000010001000
#BPMCHANGE 104.87
#SCROLL 0.93
100000000000
#BPMCHANGE 102.65
#SCROLL 0.95
200000000000,
#BPMCHANGE 97.98
#SCROLL 1
700000000000
#BPMCHANGE 106.01
#SCROLL 0.92
000000000000
#BPMCHANGE 105.44
#SCROLL 0.93
000000000000800000000000,
#BPMCHANGE 97.98
#SCROLL 1
100000000000
#BPMCHANGE 108.09
#SCROLL 0.91
500000000000
#BPMCHANGE 101.83
#SCROLL 0.96
000000000008
#BPMCHANGE 114.1
#SCROLL 0.86
000000000000,
#BPMCHANGE 104.59
#SCROLL 0.94
100000000000000010001000
#BPMCHANGE 102.13
#SCROLL 0.96
100000000000000000000000,
#BPMCHANGE 106.25
#SCROLL 0.92
100010001000000010001000
#BPMCHANGE 108.03
#SCROLL 0.91
100000000000200000000000,
#BPMCHANGE 91.18
#SCROLL 1.08
700000000000
#GOGOEND
#BPMCHANGE 110.86
#SCROLL 0.88
000000000000
#BPMCHANGE 112.14
#SCROLL 0.87
000000000000
#BPMCHANGE 102.37
#SCROLL 0.96
800000000000,
#BPMCHANGE 92.17
#SCROLL 1.59
300000000000000000000000000000000000000000000000,
#MEASURE 4/4
#BPMCHANGE 95.9
#SCROLL 1.53
000000000000000000000000000000000000000000000000,
#BPMCHANGE 94.91
#SCROLL 1.55
000000000000000000000000000000000000000000000000,
#BPMCHANGE 146.79
300000000000600000000000000000000000000000000000,
#MEASURE 3/4
#BPMCHANGE 151.26
#SCROLL 0.95
000000000000000000008000000000000000,
#MEASURE 4/4
#BPMCHANGE 143.81
300000000000400000000000300000000000400000000000,
#MEASURE 2/4
#BPMCHANGE 153.98
#SCROLL 0.93
300000003000000030000000,
#MEASURE 4/4
#BPMCHANGE 145.32
#SCROLL 0.98
300000000100000000100000100000000000200000000000,
#BPMCHANGE 148.19
#SCROLL 0.97
100000000100000000100000100000000000200000000000,
#BPMCHANGE 147.86
100000000100000000100000000000200000200000000000,
#BPMCHANGE 143.62
#SCROLL 1
100000000100000000100000000000200000200000000000,
#BPMCHANGE 149.26
#SCROLL 0.96
300000000300000000300000400000000000000000000000,
#BPMCHANGE 146.35
#SCROLL 0.98
300000000300000000300000400000000000000000000000,
#BPMCHANGE 145.58
100000000100000000100000000000100000200000000000,
#BPMCHANGE 147.53
#SCROLL 0.97
700000000000000000000000000000000800000000000000,
#BPMCHANGE 149.12
#SCROLL 0.96
100000000100000000100000000000100000200000000000,
#BPMCHANGE 145.58
#SCROLL 0.98
300000000300000000300000400000000000000000000000,
#BPMCHANGE 147.66
#SCROLL 0.97
100000000100000000100000100000000000200000000000,
#BPMCHANGE 147.79
300000000300000000300000400000000000000000000000,
#BPMCHANGE 148.59
#SCROLL 0.96
100000000200000000100000
#BPMCHANGE 143.43
#SCROLL 1
100000000000200000000000,
#BPMCHANGE 144.56
#SCROLL 0.99
300000000300000000300000
#BPMCHANGE 150.34
#SCROLL 0.95
400000000000000000000000,
#BPMCHANGE 148.45
#SCROLL 0.96
100000000100000000100000
#BPMCHANGE 143.81
#SCROLL 0.99
100000000000200000000000,
#MEASURE 3/4
#BPMCHANGE 143.89
300000000000400000000000400000000000,
#BPMCHANGE 149.44
#SCROLL 0.96
300000000000400000000000400000000000,
#BPMCHANGE 146.61
#SCROLL 0.98
300000000000400000000000400000000000,
#MEASURE 4/4
#BPMCHANGE 149.39
#SCROLL 0.96
700000000000000000000000000000000000000000000000,
#BPMCHANGE 143.43
#SCROLL 1
000000000000000000000000000000000000800000000000,
#BPMCHANGE 144
300000000000100000000000100000100000100000300000,
000000300000000000000000000000000000000000000000,
300000000000100000000000100000100000100000400000,
000000400000000000000000000000000000000000000000,
300000000000100000000000100000100000100000300000,
000000300000000000000000000000000000000000000000,
300000000000100000000000100000100000100000400000,
000000400000000000000000000000000000000000000000,
#GOGOSTART
300000000000100000000000100100100000100000300000,
000000000000100000000000100100100000100000300000,
000000000000100000000000100100100000100000300000,
000000000000100000000000100000100100100000000000,
400000000000100000000000100100100000100000400000,
000000000000100000000000100100100000100000400000,
000000000000100000000000100100100000100000400000,
000000000000000000400000000000000000400000000000,
#GOGOEND
100000100000200000000000100000100000000000200000,
200200200000100000200200200000200000200000000000,
100000100000200000000000100000100000000000200000,
200200200000100000200200200000200000200000000000,
#MEASURE 3/4
300000300000000000100000100000100000,
200000100000100000200000100000100000,
200000100000100000200000100000100000,
200000100100100000200000000000000000,
300000300000000000100000100000100000,
200000100000100000200000100000100000,
200000100000100000200000100000100000,
200000000000100000400000000000000000,
#GOGOSTART
300000300000000000100000100000100000,
200000100000100000200000100000100000,
200000100000100000200000100000100000,
200000100100100000200000000000000000,
300000300000000000100000100000100000,
200000100000100000200000100000100000,
200000100000100000200000100000100000,
200000000000100000400000000000000000,
#GOGOEND
#MEASURE 4/4
400000000000000000000000000000000000000000000000,
000000000000000000000000000000000000000000000000,
700000000000000000000000000000000000000000000000,
000000000000000000000000000000000000000000000800,
000000000000000000000000000000000000000000000000,
#BPMCHANGE 107
000000000000000000000000000000000000000000000000,
#MEASURE 3/4
000000000000000000000000000000000000,
000000000000000000000000000000000000,
000000000000000000000000000000000000,
#BPMCHANGE 109.5
100000100100100000100000000000200000,
100000100100100000100000000000200000,
100000100100100000100000000000200000,
#BPMCHANGE 108
100000100100100000100000000000100000,
400000000000000000100000100100100000,
200000000000100000100100100000100000,
200000000000100000100100100000100000,
200000100100100000200000000000100000,
100000000000000000100000100100100000,
200000000000100000100100100000100000,
200000000000100000100100100000100000,
200000100000100000200000000000000000,
500000000000000000000800000000000000,
100000000000000000100000100000100000,
500000000000000000000800000000000000,
100000000000000000100000100000100000,
300000000000300000400000000000000000,
300000000000300000300000000000000000,
300000000000300000400000000000000000,
300000000000400000400000000000000000,
500000000000000000800000000000000000,
300000000000000000000000000000000000,
#MEASURE 7/8
#BPMCHANGE 142
000000000000000000000000000000000000000000,
#GOGOSTART
#MEASURE 4/4
#BPMCHANGE 142
200000000000100000000000200000000000100000000000,
200000000000100000100000000000100000200000100000,
200000000000100000100000000000100000200000100000,
200200200000200200200000100100100000100100100000,
#BPMCHANGE 140.21
#SCROLL 1.01
200000100000200000100000200000000000000000000000,
#MEASURE 15/16
#BPMCHANGE 145.58
#SCROLL 0.98
000300000000000000000000000000000000000000000,
#MEASURE 4/4
#BPMCHANGE 140.63
#SCROLL 1.01
000000000000000000000000
#BPMCHANGE 136.45
#SCROLL 1.04
000000000000400000000000,
#GOGOEND
#END
COURSE:Normal
LEVEL:5
BALLOON:6,6,6,12,15
SCOREINIT:550
SCOREDIFF:153
#START
#GOGOSTART
#SCROLL 1.05
300000000000600000000000
#SCROLL 0.97
#BPMCHANGE 107.48
000000000080000000000000,
#BPMCHANGE 103.47
#SCROLL 1
300000000000300000000000
#SCROLL 0.99
#BPMCHANGE 104.86
300000000000000000000000,
#BPMCHANGE 104.58
300000000000300000000000
#BPMCHANGE 104.87
300000000000
#SCROLL 1.01
#BPMCHANGE 102.65
000000000000,
#BPMCHANGE 97.98
#SCROLL 1.06
700000000000
#SCROLL 0.98
#BPMCHANGE 106.01
000000000000
#BPMCHANGE 105.44
000000000080000000000000,
#BPMCHANGE 97.98
#SCROLL 1.06
100000000000
#SCROLL 0.96
#BPMCHANGE 108.09
500000000000
#SCROLL 1.02
#BPMCHANGE 101.83
000000000080
#SCROLL 0.91
#BPMCHANGE 114.1
000000000000,
#BPMCHANGE 104.59
#SCROLL 0.99
100000000000100000000000
#BPMCHANGE 102.13
#SCROLL 1.02
100000000000000000000000,
#BPMCHANGE 106.25
#SCROLL 0.98
100000000000100000000000
#SCROLL 0.96
#BPMCHANGE 108.03
100000000000000000000000,
#BPMCHANGE 91.18
#SCROLL 1.14
700000000000
#GOGOEND
#SCROLL 0.94
#BPMCHANGE 110.86
000000000000
#SCROLL 0.93
#BPMCHANGE 112.14
000000000080
#SCROLL 1.01
#BPMCHANGE 102.37
000000000000,
#BPMCHANGE 92.17
#SCROLL 1.58
300000000000000000000000000000000000000000000000,
#MEASURE 4/4
#BPMCHANGE 95.9
#SCROLL 1.52
000000000000000000000000000000000000000000000000,
#BPMCHANGE 94.91
#SCROLL 1.54
000000000000000000000000000000000000000000000000,
#BPMCHANGE 149.15
#SCROLL 0.98
300000000000600000000000000000000000000000000000,
#MEASURE 3/4
#BPMCHANGE 147.86
#SCROLL 0.98
000000000000000000
#BPMCHANGE 143.55
#SCROLL 1.01
000080000000000000,
#MEASURE 4/4
#BPMCHANGE 146.61
#SCROLL 0.99
300000000000400000000000
#BPMCHANGE 144.05
#SCROLL 1.01
300000000000400000000000,
#MEASURE 2/4
#BPMCHANGE 139.91
#SCROLL 1.04
300000003000000000000000,
#MEASURE 4/4
#BPMCHANGE 147.07
#SCROLL 1
100000000100000000000000100000000000000000000000,
#BPMCHANGE 146.57
100000000100000000000000100000000000000000000000,
100000000100000000000000200000000000000000000000,
#BPMCHANGE 147
100000000100000000000000200000000000000000000000,
100000000000000000000000400000000000000000000000,
#BPMCHANGE 146.67
100000000000000000000000400000000000000000000000,
100000000100000000100000000000000000100000000000,
#BPMCHANGE 148.72
#SCROLL 0.98
700000000000000000000000000000000080000000000000,
#BPMCHANGE 145.19
#SCROLL 1.01
100000000100000000100000000000000000100000000000,
#BPMCHANGE 146.61
#SCROLL 1
300000000000000000000000400000000000000000000000,
#BPMCHANGE 149.27
#SCROLL 0.98
100000000000200000200000200000000000000000000000,
#BPMCHANGE 146.61
#SCROLL 1
300000000000000000000000400000000000000000000000,
#BPMCHANGE 149.27
#SCROLL 0.98
200000000000100000100000100000000000000000000000,
#BPMCHANGE 145.56
#SCROLL 1.01
300000000000000000000000400000000000000000000000,
#BPMCHANGE 147.66
#SCROLL 0.99
100000000000200000200000
#BPMCHANGE 146.35
#SCROLL 1
200000000000000000000000,
#MEASURE 3/4
#BPMCHANGE 145.92
300000000000300000000000000000000000,
#BPMCHANGE 146.96
300000000000400000000000000000000000,
#BPMCHANGE 145.92
300000000000300000000000000000000000,
#BPMCHANGE 152.56
#SCROLL 0.96
700000000000000000000000000000000000,
#MEASURE 5/4
#BPMCHANGE 148.99
#SCROLL 0.98
000000000000
#BPMCHANGE 145.38
#SCROLL 1.01
000000000000000000000000000080000000000000000000,
#MEASURE 4/4
#BPMCHANGE 143.93
#SCROLL 1
300000000000100000000000100000100000000000300000,
#BPMCHANGE 144.43
#SCROLL 0.99
000000300000000000000000000000000000000000000000,
#BPMCHANGE 142.07
#SCROLL 1.01
300000000000100000000000100000100000000000400000,
#BPMCHANGE 144.43
#SCROLL 0.99
000000400000000000000000000000000000000000000000,
#BPMCHANGE 143.93
#SCROLL 1
300000000000100000000000100000100000000000300000,
#BPMCHANGE 143.8
000000300000000000000000000000000000000000000000,
#BPMCHANGE 144.81
#SCROLL 0.99
300000000000100000000000100000100000000000400000,
#BPMCHANGE 144.62
000000400000000000000000000000000000000000000000,
#GOGOSTART
#BPMCHANGE 144.24
300000000000100000000000100000100000100000300000,
#BPMCHANGE 143.93
#SCROLL 1
000000000000100000000000100000100000100000300000,
000000000000100000000000100000100000100000300000,
000000000000100000000000100000100000100000000000,
#BPMCHANGE 144.81
#SCROLL 0.99
400000000000100000000000100000100000100000400000,
000000000000100000000000100000100000100000400000,
#BPMCHANGE 143.31
#SCROLL 1
000000000000100000000000100000100000100000400000,
000000000000000000400000000000000000400000000000,
#GOGOEND
#BPMCHANGE 143.8
100000100000100000000000100000100000000000200000,
000000000000000000000000000000000000000000000000,
#BPMCHANGE 144.05
#SCROLL 0.99
100000100000100000000000100000100000000000200000,
000000000000000000000000000000000000000000000000,
#MEASURE 3/4
#BPMCHANGE 143.18
#SCROLL 1
300000300000000000100000000000100000,
100000000000100000100000000000000000,
#BPMCHANGE 143.68
100000000000100000100000000000000000,
200000000000200000200000000000000000,
#BPMCHANGE 144.37
#SCROLL 0.99
300000300000000000100000000000100000,
100000000000100000100000000000000000,
100000000000100000100000000000000000,
400000000000000000400000000000000000,
#GOGOSTART
#BPMCHANGE 144.04
300000300000000000100000000000100000,
100000000000100000100000000000000000,
100000000000100000100000000000000000,
200000000000200000200000000000000000,
300000300000000000100000000000100000,
#BPMCHANGE 143.77
#SCROLL 1
100000000000100000100000000000000000,
100000000000100000100000000000000000,
400000000000000000400000000000000000,
#GOGOEND
#MEASURE 4/4
#BPMCHANGE 145.64
#SCROLL 0.98
400000000000000000000000000000000000000000000000,
#BPMCHANGE 144.75
#SCROLL 0.99
000000000000000000000000000000000000000000000000,
#BPMCHANGE 142.69
#SCROLL 1
700000000000000000000000000000000000000000000000,
#BPMCHANGE 143.43
000000000000000000000000000000000080000000000000,
#BPMCHANGE 132.3
#SCROLL 1.08
000000000000000000000000000000000000000000000000,
#BPMCHANGE 103.36
#SCROLL 1.04
000000000000
#BPMCHANGE 112.35
#SCROLL 0.96
000000000000000000000000000000000000,
#MEASURE 3/4
#BPMCHANGE 106.56
#SCROLL 1.01
000000000000000000000000000000000000,
#BPMCHANGE 108.23
#SCROLL 1
000000000000000000000000000000000000,
000000000000000000000000000000000000,
#BPMCHANGE 111.94
#SCROLL 0.96
100000500000000000000080000000000000,
#BPMCHANGE 114.42
#SCROLL 0.94
100000500000000000000080000000000000,
#BPMCHANGE 108.8
#SCROLL 0.99
100000500000000000000080000000000000,
#BPMCHANGE 103.71
#SCROLL 1.04
100000500000000000000080000000000000,
#BPMCHANGE 108.42
#SCROLL 0.99
400000000000000000100000000000000000,
#BPMCHANGE 109.57
#SCROLL 0.98
100000000000000000100000000000100000,
#BPMCHANGE 106.01
#SCROLL 1.02
100000000000000000200000000000000000,
#BPMCHANGE 107.11
#SCROLL 1.01
100000000000100000200000000000100000,
#BPMCHANGE 110.74
#SCROLL 0.97
100000000000000000100000100000100000,
#BPMCHANGE 106.92
#SCROLL 1.01
200000000000000000100000000000100000,
#BPMCHANGE 108.61
#SCROLL 0.99
200000000000000000100000000000000000,
#BPMCHANGE 109.91
#SCROLL 0.98
200000000000000000000000000000000000,
#BPMCHANGE 108.47
#SCROLL 0.99
500000000000000000000080000000000000,
#BPMCHANGE 110.15
#SCROLL 0.98
100000000000000000100000100000100000,
#BPMCHANGE 106.19
#SCROLL 1.01
500000000000000000000080000000000000,
#BPMCHANGE 108.04
#SCROLL 1
100000000000000000100000100000100000,
#BPMCHANGE 107.11
#SCROLL 1.01
300000000000000000400000000000000000,
#BPMCHANGE 106.37
300000000000000000400000000000000000,
#BPMCHANGE 104.76
#SCROLL 1.03
300000000000000000400000000000000000,
#BPMCHANGE 107.29
#SCROLL 1
300000000000000000400000000000000000,
#BPMCHANGE 110.54
#SCROLL 0.97
500000000000000000000080000000000000,
300000000000000000000000000000000000,
#BPMCHANGE 120.77
#SCROLL 0.89
000000000000000000000000000000000000,
#GOGOSTART
#MEASURE 4/4
#BPMCHANGE 142.69
#SCROLL 0.99
200000000000100000000000200000000000100000000000,
#BPMCHANGE 143.06
200000000000100000100000000000100000100000000000,
#BPMCHANGE 141.38
#SCROLL 1
200000000000100000100000000000100000100000000000,
#BPMCHANGE 141.5
200000200000200000000000100000100000100000000000,
#BPMCHANGE 142.25
200000000000200000000000200000000000000000000000,
#MEASURE 15/16
000000000000
#SCROLL 1.02
#BPMCHANGE 139.29
000000000000
#SCROLL 0.96
#BPMCHANGE 148.11
300000000000000000000,
000000000000000000000000000000000000000000000,
000000000000000000000000000000000000000000000,
000000000000000000000000000000000000000000000,
#MEASURE 4/4
#BPMCHANGE 141.75
#SCROLL 1
000000000000000000000000000000000000400000000000,
#GOGOEND
#END
COURSE:Easy
LEVEL:4
BALLOON:5,5,5,10,10
SCOREINIT:480
SCOREDIFF:148
#START
#GOGOSTART
300000000000600000000000
#SCROLL 0.97
#BPMCHANGE 107.48
000000000080000000000000,
#BPMCHANGE 103.47
#SCROLL 0.95
300000000000000000000000
#SCROLL 0.94
#BPMCHANGE 104.86
300000000000000000000000,
#BPMCHANGE 104.58
#SCROLL 0.94
300000000000000000000000
#SCROLL 0.93
#BPMCHANGE 104.87
300000000000
#SCROLL 0.95
#BPMCHANGE 102.65
000000000000,
#BPMCHANGE 97.98
#SCROLL 1
700000000000
#SCROLL 0.92
#BPMCHANGE 106.01
000000000000
#SCROLL 0.93
#BPMCHANGE 105.44
000000000080000000000000,
#BPMCHANGE 97.98
#SCROLL 1
100000000000
#SCROLL 0.91
#BPMCHANGE 108.09
500000000000
#SCROLL 0.96
#BPMCHANGE 101.83
000000000080
#SCROLL 0.86
#BPMCHANGE 114.1
000000000000,
#BPMCHANGE 104.59
#SCROLL 0.94
100000000000000000000000
#SCROLL 0.96
#BPMCHANGE 102.13
100000000000000000000000,
#BPMCHANGE 106.25
#SCROLL 0.92
100000000000000000000000
#SCROLL 0.91
#BPMCHANGE 108.03
100000000000000000000000,
#BPMCHANGE 91.18
#SCROLL 1.08
700000000
#GOGOEND
#SCROLL 0.88
#BPMCHANGE 110.86
000000000
#SCROLL 0.87
#BPMCHANGE 112.14
000000000
#SCROLL 0.96
#BPMCHANGE 102.37
000000000000000000080,
000000000000000000000000000000000000000000000000,
#BPMCHANGE 92.17
#SCROLL 1.59
300000000000000000000000000000000000000000000000,
#MEASURE 4/4
#BPMCHANGE 95.9
#SCROLL 1.53
000000000000000000000000000000000000000000000000,
#BPMCHANGE 94.91
#SCROLL 1.55
000000000000000000000000000000000000000000000000,
#BPMCHANGE 146.79
#SCROLL 1
300000000000600000000000000000000000000000000000,
#MEASURE 3/4
#BPMCHANGE 151.26
#SCROLL 0.95
000000000000000000000080000000000000,
#MEASURE 4/4
#BPMCHANGE 143.81
300000000000000000000000300000000000000000000000,
#MEASURE 2/4
#BPMCHANGE 153.98
#SCROLL 0.93
000000000000000000000000,
#MEASURE 4/4
#BPMCHANGE 145.32
#SCROLL 0.98
300000000000000000000000400000000000000000000000,
#BPMCHANGE 148.19
#SCROLL 0.97
100000000000100000000000100000000000000000000000,
#BPMCHANGE 147.86
300000000000000000000000400000000000000000000000,
#BPMCHANGE 143.62
#SCROLL 1
100000000000100000000000100000000000000000000000,
#BPMCHANGE 149.26
#SCROLL 0.96
300000000000000000000000400000000000000000000000,
#BPMCHANGE 146.35
#SCROLL 0.98
300000000000000000000000400000000000000000000000,
#BPMCHANGE 145.58
100000000000000000000000100000000000100000000000,
#BPMCHANGE 147.53
#SCROLL 0.97
700000000000000000000000000000000080000000000000,
#BPMCHANGE 149.12
#SCROLL 0.96
100000000000000000000000100000000000100000000000,
#BPMCHANGE 145.58
#SCROLL 0.98
300000000000000000000000400000000000000000000000,
#BPMCHANGE 147.66
#SCROLL 0.97
100000000000100000000000100000000000000000000000,
#BPMCHANGE 147.79
300000000000000000000000400000000000000000000000,
#BPMCHANGE 148.59
#SCROLL 0.96
200000000000200000000000
#SCROLL 1
#BPMCHANGE 143.43
200000000000000000000000,
#BPMCHANGE 144.56
#SCROLL 0.99
300000000000000000000000
#SCROLL 0.95
#BPMCHANGE 150.34
400000000000000000000000,
#BPMCHANGE 148.45
#SCROLL 0.96
100000000000100000000000
#SCROLL 0.99
#BPMCHANGE 143.81
100000000000000000000000,
#MEASURE 3/4
#BPMCHANGE 143.89
300000000000300000000000000000000000,
#BPMCHANGE 149.44
#SCROLL 0.96
400000000000400000000000000000000000,
#BPMCHANGE 146.61
#SCROLL 0.98
300000000000300000000000000000000000,
#MEASURE 4/4
#BPMCHANGE 149.39
#SCROLL 0.96
700000000000000000000000000000000000000000000000,
#BPMCHANGE 143.43
#SCROLL 1
000000000000000000000000000080000000000000000000,
#BPMCHANGE 144
300000000000000000000000000000000000000000300000,
000000300000000000000000000000000000000000000000,
300000000000000000000000000000000000000000300000,
000000300000000000000000000000000000000000000000,
300000000000000000000000000000000000000000300000,
000000300000000000000000000000000000000000000000,
300000000000000000000000000000000000000000300000,
000000300000000000000000000000000000000000000000,
#GOGOSTART
300000000000100000000000100000000000000000300000,
000000000000100000000000100000000000000000300000,
000000000000100000000000100000000000000000300000,
000000000000100000000000100000000000000000000000,
400000000000100000000000100000000000000000400000,
000000000000100000000000100000000000000000400000,
000000000000100000000000100000000000000000400000,
000000000000000000000000000000000000000000000000,
#GOGOEND
100000000000000000000000100000000000000000200000,
000000000000000000000000000000000000000000000000,
100000000000000000000000100000000000000000200000,
000000000000000000000000000000000000000000000000,
#MEASURE 3/4
300000000000000000000000000000000000,
100000000000000000100000000000000000,
100000000000000000000000000000000000,
200000000000000000200000000000000000,
300000000000000000000000000000000000,
100000000000000000100000000000000000,
100000000000000000000000000000000000,
200000000000000000200000000000000000,
#GOGOSTART
300000000000000000000000000000000000,
100000000000000000100000000000000000,
100000000000000000100000000000000000,
200000000000000000200000000000000000,
300000000000000000000000000000000000,
100000000000000000100000000000000000,
100000000000000000100000000000000000,
200000000000000000200000000000000000,
#GOGOEND
#MEASURE 4/4
400000000000000000000000000000000000000000000000,
000000000000000000000000000000000000000000000000,
700000000000000000000000000000000000000000000000,
000000000000000000000000000000000080000000000000,
000000000000000000000000000000000000000000000000,
#BPMCHANGE 107
000000000000000000000000000000000000000000000000,
#MEASURE 3/4
000000000000000000000000000000000000,
000000000000000000000000000000000000,
000000000000000000000000000000000000,
#BPMCHANGE 109.5
500000000000000000000080000000000000,
500000000000000000000080000000000000,
500000000000000000000080000000000000,
#BPMCHANGE 108
500000000000000000000080000000000000,
300000000000000000100000000000000000,
100000000000000000000000000000000000,
100000000000000000100000000000000000,
100000000000000000000000000000000000,
400000000000000000100000000000000000,
200000000000000000000000000000000000,
200000000000000000100000000000000000,
200000000000000000000000000000000000,
500000000000000000000080000000000000,
100000000000000000100000000000000000,
500000000000000000000080000000000000,
100000000000000000100000000000000000,
300000000000000000400000000000000000,
300000000000000000400000000000000000,
300000000000000000400000000000000000,
300000000000000000400000000000000000,
500000000000000000000080000000000000,
300000000000000000000000000000000000,
#MEASURE 7/8
#BPMCHANGE 142
000000000000000000000000000000000000000000,
#GOGOSTART
#MEASURE 4/4
200000000000200000000000200000000000200000000000,
200000000000100000000000000000000000100000000000,
200000000000100000000000000000000000100000000000,
100000100000100000000000100000100000100000000000,
#BPMCHANGE 142.25
200000000000200000000000200000000000000000000000,
#MEASURE 15/16
000000000000
#SCROLL 1.02
#BPMCHANGE 139.29
000000000000
#SCROLL 0.96
#BPMCHANGE 148.11
300000000000000000000,
000000000000000000000000000000000000000000000,
000000000000000000000000000000000000000000000,
000000000000000000000000000000000000000000000,
#MEASURE 4/4
#BPMCHANGE 141.75
#SCROLL 1
000000000000000000000000000000000000400000000000,
#GOGOEND
#END