265 lines
3.4 KiB
Plaintext
265 lines
3.4 KiB
Plaintext
//TJADB Project
|
|
TITLE:SPARKING
|
|
TITLEJA:SPARKING 鉄拳5
|
|
SUBTITLE:--Satoru Kousaki feat. Tom Leonard/TEKKEN 5 DARK RESURRECTION
|
|
BPM:115
|
|
WAVE:SPARKING.ogg
|
|
OFFSET:-2.884
|
|
DEMOSTART:46.439
|
|
|
|
COURSE:Oni
|
|
LEVEL:8
|
|
SCOREINIT:730
|
|
SCOREDIFF:140
|
|
|
|
#START
|
|
10000001,
|
|
1000000010010010,
|
|
10011001,
|
|
1011,
|
|
1000200101102010,
|
|
1000200101102011,
|
|
1000200101102110,
|
|
1011,
|
|
3000101011120201,
|
|
0100101011220200,
|
|
1000101011120201,
|
|
0100101012212212,
|
|
1201201201201111,
|
|
1010201112102010,
|
|
1010201212102010,
|
|
1010201112102010,
|
|
1010201012112110,
|
|
1010201112102010,
|
|
1010201212102010,
|
|
1010201112102000,
|
|
1110201111112030,
|
|
3000122112210030,
|
|
3000122112210010,
|
|
1011011011012210,
|
|
1011011011011030,
|
|
3021122112210030,
|
|
3021122112210010,
|
|
1011011011011010,
|
|
300000000300000000300000000300000000101010101010,
|
|
#GOGOSTART
|
|
1010201110102011,
|
|
1010201011112010,
|
|
1010201011102010,
|
|
1000000010010010,
|
|
1010201112102011,
|
|
1010201112102010,
|
|
#BPMCHANGE 114.51
|
|
3003003000002000,
|
|
#GOGOEND
|
|
#BPMCHANGE 115
|
|
1021201202122021,
|
|
1021201202122021,
|
|
1021201202122021,
|
|
1021201202122021,
|
|
1021201202122021,
|
|
1021201202122021,
|
|
1021201202122021,
|
|
100000200100200000100200000000101010200000000000,
|
|
#GOGOSTART
|
|
1111010122122120,
|
|
1111010121030300,
|
|
1111010122122120,
|
|
1111010122122120,
|
|
100200100100200100100200100100200100100100202020,
|
|
1111010101103030,
|
|
#GOGOEND
|
|
#END
|
|
|
|
COURSE:Hard
|
|
LEVEL:7
|
|
SCOREINIT:780
|
|
SCOREDIFF:180
|
|
|
|
#START
|
|
10000001,
|
|
1000000010010010,
|
|
10011001,
|
|
1011,
|
|
10200021,
|
|
1000200010012010,
|
|
10200021,
|
|
1011,
|
|
3000101011110101,
|
|
0100101011110100,
|
|
3000101011110101,
|
|
0100101011110100,
|
|
1102201102201111,
|
|
1000201011102010,
|
|
1010201011102000,
|
|
1000201011102010,
|
|
1001001010010010,
|
|
1000201011102010,
|
|
1010201011102000,
|
|
1010201011102010,
|
|
1110201011101030,
|
|
3000111011010030,
|
|
3000111011010000,
|
|
1001001001001000,
|
|
1001001001001030,
|
|
3000111011010030,
|
|
3000111011010000,
|
|
1001001001001000,
|
|
3003003003003000,
|
|
#GOGOSTART
|
|
1010201110102011,
|
|
1010201011102000,
|
|
1010201110102011,
|
|
1000000010010010,
|
|
1010201011102010,
|
|
1010201011102000,
|
|
#BPMCHANGE 114.51
|
|
3003003000000000,
|
|
#GOGOEND
|
|
#BPMCHANGE 115
|
|
10200120,
|
|
10200121,
|
|
10200120,
|
|
10200121,
|
|
10200120,
|
|
10200121,
|
|
10200120,
|
|
1,
|
|
#GOGOSTART
|
|
3030000110101010,
|
|
3000000303030300,
|
|
3030010101010100,
|
|
3000000303030300,
|
|
6000000000000800,
|
|
1101010101103030,
|
|
#GOGOEND
|
|
#END
|
|
|
|
COURSE:Normal
|
|
LEVEL:6
|
|
SCOREINIT:800
|
|
SCOREDIFF:280
|
|
|
|
#START
|
|
10000001,
|
|
1001,
|
|
10000001,
|
|
1001,
|
|
1202,
|
|
1202,
|
|
1202,
|
|
1,
|
|
3000101011010000,
|
|
,
|
|
3000101011010000,
|
|
,
|
|
3,
|
|
10201100,
|
|
10201100,
|
|
10200120,
|
|
1,
|
|
10201100,
|
|
10201100,
|
|
10200120,
|
|
10000003,
|
|
3000101011010030,
|
|
3000101011010000,
|
|
1001001001001000,
|
|
1001001001000030,
|
|
3000101011010030,
|
|
3000101011010000,
|
|
1001001001001000,
|
|
5000000000080000,
|
|
#GOGOSTART
|
|
1001002000102000,
|
|
1001002000102000,
|
|
1012,
|
|
1000000010010010,
|
|
10201120,
|
|
1001001010002000,
|
|
#BPMCHANGE 114.51
|
|
3003003000000000,
|
|
#GOGOEND
|
|
#BPMCHANGE 115
|
|
1202,
|
|
10200120,
|
|
1202,
|
|
10200120,
|
|
1202,
|
|
10200120,
|
|
1202,
|
|
1,
|
|
#GOGOSTART
|
|
33000000,
|
|
3000000303030300,
|
|
33000000,
|
|
3000000303030300,
|
|
6000000000080000,
|
|
3003030300003030,
|
|
#GOGOEND
|
|
#END
|
|
|
|
COURSE:Easy
|
|
LEVEL:5
|
|
SCOREINIT:690
|
|
SCOREDIFF:220
|
|
|
|
#START
|
|
10000001,
|
|
1001,
|
|
10000001,
|
|
1001,
|
|
1202,
|
|
0202,
|
|
0202,
|
|
,
|
|
3210,
|
|
0112,
|
|
3210,
|
|
0112,
|
|
1,
|
|
10201100,
|
|
10201100,
|
|
1202,
|
|
1,
|
|
10201100,
|
|
10201100,
|
|
1202,
|
|
10000003,
|
|
30111003,
|
|
30111000,
|
|
1001001000000000,
|
|
1001001000000030,
|
|
30111003,
|
|
30111000,
|
|
1001001000000000,
|
|
5000000000000800,
|
|
#GOGOSTART
|
|
1001002000000000,
|
|
1001002000000000,
|
|
1012,
|
|
1,
|
|
1010,
|
|
1010,
|
|
#BPMCHANGE 114.51
|
|
3003003000000000,
|
|
#GOGOEND
|
|
#BPMCHANGE 115
|
|
1202,
|
|
1202,
|
|
1202,
|
|
1202,
|
|
1202,
|
|
1202,
|
|
1202,
|
|
1,
|
|
#GOGOSTART
|
|
3,
|
|
3000000303030300,
|
|
3,
|
|
3000000303030300,
|
|
6000000000000800,
|
|
00000033,
|
|
#GOGOEND
|
|
#END
|