Files
ESE/07 Game Music/tear/tear.tja
T
2026-09-09 16:46:55 -04:00

394 lines
4.6 KiB
Plaintext
Raw Blame History

This file contains ambiguous Unicode characters
This file contains Unicode characters that might be confused with other characters. If you think that this is intentional, you can safely ignore this warning. Use the Escape button to reveal them.
//TJADB Project
TITLE:tear
TITLEJA:tear
SUBTITLE:--Masato Nakayama feat. Hiromi Hirata/THE iDOLM@STER MUST SONGS: Blue Album
SUBTITLEJA:
BPM:145
WAVE:tear.ogg
OFFSET:-1.860
DEMOSTART:71.989
SCENEPRESET:IMAS
COURSE:Oni
LEVEL:7
BALLOON:13
SCOREINIT:750,2420
SCOREDIFF:203
NOTESDESIGNER3:Kuboken
#START
2,
2,
2,
2,
10010110,
1001001010001010,
500000000000000000000008000000100000100000600000,
000000000000000000000000000000000000000008000000,
1010101010101122, //9
#GOGOSTART
1000201021202010,
1000201022102011,
1000201021202010,
1001201012102011,
1000201021202010,
1011201210112012,
1000202212102010,
600000000000000000000000000000000008000000000000, //17
#GOGOEND
10200021,
10200021,
10211021,
1202,
1000002200002010,
1000002200002010,
1001001010010010,
10000120, //25
1001001010012010,
1001001020102011,
1001201010012010,
1001001020102011,
11221122,
30303021,
1011202110102000,
500000000000000000000000000000000008000000300000,
0010200202202010, //34
1000001000112010,
1001001010002022,
1010202210102022,
1001002120002000,
10211021,
1010202210102010,
1011201210112010,
30111111,
1010101202102012, //43
#GOGOSTART
1001201210012012,
1001201022112010,
1001201210012012,
1001201000102010,
1001201000102010,
1001201022102011,
1011201012012010,
1000200202202010, //51
1001201210012012,
1001201022112010,
1001201210012012,
1001202101202000,
1001201000102010,
1001202101202022,
1011202110112010,
500000000000000000000000000000000008000000700000,
0008, //60
#GOGOEND
2,
#BPMCHANGE 144.72
2,
#BPMCHANGE 106.26
2,
2,
#BARLINEOFF
0, //65
#END
COURSE:Hard
LEVEL:5
BALLOON:12
SCOREINIT:990,4230
SCOREDIFF:313
#START
2,
2,
2,
2,
10010110,
1001001010001010,
500000000000000000000008000000100000100000600000,
000000000000000000000000000000000000000008000000,
0,
#GOGOSTART
10200120,
10200121,
10200120,
1002202000102010,
10200120,
11201121,
10200120,
600000000000000000000000000000000008000000000000,
#GOGOEND
10000001,
10000001,
10011001,
1,
20000002,
20000002,
20022002,
2,
1001001010010010,
1001001010000020,
2002002020020020,
20000001,
11221022,
30303001,
1011001010001000,
500000000000000000000000000000000000000000000008,
0,
10010120,
1001001010000010,
11221010,
1001001110000000,
10111022,
10101001,
1011001010010010,
500000000000000000000000000000000000000008000000,
0,
#GOGOSTART
1001001010010010,
10020221,
1001001010010010,
10020221,
10010120,
1001001010000011,
1011001010010010,
1,
1001001010010010,
10020221,
1001001010010010,
1000202100000000,
1001001000102000,
1001001100000011,
1011101110111000,
500000000000000000000000000000000008000000700000,
0008,
#GOGOEND
2,
#BPMCHANGE 144.72
2,
#BPMCHANGE 106.26
2,
2,
#BARLINEOFF
0, //65
#END
COURSE:Normal
LEVEL:4
BALLOON:8
SCOREINIT:950,5590
SCOREDIFF:400
#START
2,
2,
2,
2,
1,
11,
500000000000000000000008000000000000000000600000,
000000000000000000000000000000000000000008000000,
0,
#GOGOSTART
0303,
4303,
0303,
4303,
0303,
4303,
0303,
600000000000000000000000000000000008000000000000,
#GOGOEND
10000001,
10000001,
10011001,
1,
20000002,
20000002,
20022002,
2,
10011001,
10011002,
20022002,
2,
10111010,
3330,
10111010,
500000000000000000000000000000000000000000000008,
0,
10010110,
10011000,
1122,
10011000,
10101011,
1110,
10111010,
500000000000000000000000000000000000000008000000,
0,
#GOGOSTART
10101011,
10020220,
10101011,
10020220,
20010110,
11,
1122,
1,
10101011,
10020220,
10101011,
10011000,
10011000,
10011000,
1122,
500000000000000000000000000000000008000000700000,
0008,
#GOGOEND
2,
#BPMCHANGE 144.72
2,
#BPMCHANGE 106.26
2,
2,
#BARLINEOFF
0, //65
#END
COURSE:Easy
LEVEL:3
BALLOON:7
SCOREINIT:830,7960
SCOREDIFF:558
#START
0,
0,
0,
0,
1,
11,
500000000000000000000008000000000000000000600000,
000000000000000000000000000000000000000008000000,
0,
#GOGOSTART
0303,
4303,
0303,
4303,
0303,
4303,
0303,
600000000000000000000000000008000000000000000000,
#GOGOEND
1,
1,
11,
1,
2,
2,
22,
2,
11,
1110,
12,
1,
11,
3330,
12,
500000000000000000000000000000000000000000000008,
0,
1001,
1001,
11,
22,
11,
1110,
1011,
500000000000000000000000000000000000000008000000,
0,
#GOGOSTART
11,
1011,
11,
1011,
1011,
11,
1111,
1,
11,
1011,
1011,
11,
12,
12,
1111,
500000000000000000000000000000000008000000700000,
0008,
#GOGOEND
2,
#BPMCHANGE 144.72
2,
#BPMCHANGE 106.26
2,
2,
#BARLINEOFF
0, //65
#END