463 lines
6.9 KiB
Plaintext
463 lines
6.9 KiB
Plaintext
//TJADB Project
|
|
TITLE:Nijiiro 2020 Tenth Dan
|
|
SUBTITLE:--Surf Zapping & SORA-Ⅶ Cygnus Wall & memoria ficta
|
|
BPM:100
|
|
WAVE:memoria ficta.ogg
|
|
DEMOSTART:85.375
|
|
|
|
COURSE:Dan
|
|
LEVEL:10
|
|
BALLOON:5,5,27,8
|
|
EXAM1:g,100,100,m
|
|
EXAM2:jg,88,38,l
|
|
EXAM3:jb,7,3,l
|
|
|
|
|
|
#START
|
|
|
|
|
|
#NEXTSONG Surf Zapping,t+pazolite/Synchronica,ゲームミュージック,Surf Zapping.ogg,420,105
|
|
EXAM4:r,26,31,m
|
|
|
|
|
|
#DELAY 2.496
|
|
11211020,
|
|
1010202221010010,
|
|
11211021,
|
|
500000000000000008000000
|
|
#SCROLL 2
|
|
200200200200200200300000,
|
|
#BPMCHANGE 200
|
|
#SCROLL 1
|
|
1000201020100011,
|
|
2212,
|
|
10212102,
|
|
0020202010221000,
|
|
3000201020100011,
|
|
22201021,
|
|
12011012,
|
|
0020001011102000,
|
|
#SCROLL 0.7
|
|
1000202020200022,
|
|
2222,
|
|
10111101,
|
|
000000100000100000100000100000000000
|
|
#SCROLL 4
|
|
500000000008,
|
|
#SCROLL 1
|
|
0001202010210210,
|
|
1221201020120120,
|
|
1010101012121210,
|
|
21212030,
|
|
#SCROLL 0.7
|
|
#MEASURE 8/4
|
|
1221102102112130,
|
|
102020101000221010202010//22
|
|
|
|
#SCROLL 1.25
|
|
#GOGOSTART
|
|
40304000,
|
|
#MEASURE 4/4
|
|
1022102012212220,
|
|
1022122210212020,
|
|
1022102212212210,//25
|
|
|
|
#SCROLL 1
|
|
#GOGOEND
|
|
1000202011104000,
|
|
#SCROLL 0.7
|
|
#MEASURE 8/4
|
|
1221102102212130,
|
|
102020101000221010202010//28
|
|
#SCROLL 1.25
|
|
#GOGOSTART
|
|
40304000,
|
|
#MEASURE 4/4
|
|
1022102012212220,
|
|
1022122210212020,
|
|
1022102212212210,//31
|
|
|
|
#SCROLL 0.9
|
|
#GOGOEND
|
|
10223040,
|
|
#SCROLL 1
|
|
1000201020102210,
|
|
1020102011222000,
|
|
1000201020102210,
|
|
1001001070000080,
|
|
10212121,
|
|
12221111,
|
|
1000201020221020,
|
|
111100202020100000400000,
|
|
2,
|
|
20002022,
|
|
2000000010221010,
|
|
2000100011102000,
|
|
1022101012221010,
|
|
100020002000100020002000100200100100100000200000,
|
|
1010221012111010,
|
|
100200100200101010100000000000100000400000000000,
|
|
#SCROLL 0.5
|
|
10200120,
|
|
#SCROLL 0.6
|
|
10200120,
|
|
#SCROLL 0.7
|
|
10200120,
|
|
#SCROLL 0.8
|
|
10210121,
|
|
#SCROLL 0.9
|
|
2011201120112011,
|
|
#SCROLL 1
|
|
2011201111212011,
|
|
#SCROLL 1.1
|
|
2011201121212121,
|
|
22222220//56
|
|
|
|
#SCROLL 1.25
|
|
#GOGOSTART
|
|
40403000,
|
|
1022102012212220,
|
|
1022122210210210,
|
|
1022102212212210,
|
|
3334,
|
|
1022102012212220,
|
|
1022122210210210,
|
|
1022102212212220,//63
|
|
|
|
#GOGOEND
|
|
3000202011104000,//64
|
|
|
|
#GOGOSTART
|
|
1022102012212220,
|
|
1022122210210210,
|
|
1022102212212210,
|
|
3334,
|
|
1022102012212220,
|
|
1022122210210210,
|
|
1022102212212220,//71
|
|
|
|
#SCROLL 0.9
|
|
#GOGOEND
|
|
10221040,
|
|
#SCROLL 1
|
|
1000201120102011,
|
|
200000200100200000100000100000101010200000000000,
|
|
1000201120101120,
|
|
000200200200100222100200,
|
|
1000201120102011,
|
|
2110201122112210,
|
|
11032013,
|
|
03017008,
|
|
1011201120102011,
|
|
200000100200200000100100100000101010200000000000,
|
|
1011201122202120,
|
|
000000200000200100200000200000202020200000200000,
|
|
1111201120102210,
|
|
2122101012202000,
|
|
3000202020221010,
|
|
222100222100222100400000,
|
|
1111201120102212,
|
|
2112201122221011,
|
|
2122211221222112,
|
|
1212121210004000,
|
|
|
|
|
|
#NEXTSONG SORA-Ⅶ Cygnus Wall,Hisui,ナムコオリジナル,SORA-VII Cygnus Wall.ogg,430,103
|
|
EXAM4:r,59,70,m
|
|
|
|
|
|
#DELAY 2.795
|
|
#BPMCHANGE 180
|
|
#MEASURE 3/4
|
|
101,
|
|
220,
|
|
110,
|
|
200011100010000010,
|
|
101,
|
|
202020200,
|
|
110102210,
|
|
101000100022100010,
|
|
100001200,
|
|
100201001,
|
|
100001200,
|
|
100202102,
|
|
100001200,
|
|
100000200010200011,
|
|
100001002,
|
|
101010111,
|
|
101001200,
|
|
100202001,
|
|
222000200010200010,
|
|
222000200010200010,
|
|
101001202,
|
|
122021221,
|
|
200200200100200200200100200200101010,
|
|
111111,
|
|
100022202020,
|
|
100022202020,
|
|
201221,
|
|
000020002220,
|
|
100022202020,
|
|
100022202010,
|
|
102011,
|
|
011020,
|
|
122022201220,
|
|
122022201220,
|
|
122022201220,
|
|
122022221010,
|
|
122022221222,
|
|
122212221222,
|
|
122212121020,
|
|
102020111020,
|
|
212203,
|
|
002002,
|
|
002002,
|
|
000221212,//44
|
|
|
|
#GOGOSTART
|
|
102212,
|
|
100022102020,
|
|
102212,
|
|
200022111010,
|
|
225000,
|
|
000000000000000000000008000000000000,
|
|
302220302020,
|
|
300000200000200200100000200200202020,
|
|
102212,
|
|
100022102020,
|
|
102212,
|
|
211211211,
|
|
210500,
|
|
000000000000000000000008000000000000,
|
|
302022102222,
|
|
100000200000200000300000200200202020,
|
|
102212,
|
|
100022102020,
|
|
102212,
|
|
121002100100200200,
|
|
302220304000,
|
|
340322,
|
|
300000400122100400,
|
|
100200200200100020001000200020002000,
|
|
102112,
|
|
202212,
|
|
100220101020,
|
|
200012212222,
|
|
102112,
|
|
202212,
|
|
100220100220,
|
|
100000200200200010002000200010002000,//76
|
|
|
|
#GOGOEND
|
|
11,
|
|
22,
|
|
11,
|
|
22,
|
|
100100202100,
|
|
102100200100,
|
|
100100202100,
|
|
102100200100,
|
|
102120202120,
|
|
102120202120,
|
|
102010201210,
|
|
201020121210,
|
|
122122,
|
|
122121,
|
|
221221,
|
|
221212,
|
|
212212,
|
|
212212,
|
|
122122,
|
|
102022212222,
|
|
122122,
|
|
122121,
|
|
221221,
|
|
221212,
|
|
212212,
|
|
212212,
|
|
122122,
|
|
100100100111,//104
|
|
|
|
#GOGOSTART
|
|
100011201010200010,
|
|
020101122,
|
|
100011201010200010,
|
|
202101222,
|
|
101010202,
|
|
020120102,
|
|
100010200020102220,
|
|
100011100020102220,
|
|
100011201010200010,
|
|
020101122,
|
|
100011201010200010,
|
|
020101210,
|
|
5,
|
|
000000000000000000000008000000000000,
|
|
102121222,
|
|
122221222,
|
|
100011102000200011,
|
|
120201020,
|
|
100010221000100010,
|
|
221000100020002000,
|
|
102102102,
|
|
002000200022100020,
|
|
100022102000100020,
|
|
100020221010202020,
|
|
100011201010200020,
|
|
102020100011201010,
|
|
200020100011100020,
|
|
111000200022201020,
|
|
102012102012,
|
|
100102102,
|
|
100020100022102020,
|
|
122122100,//136
|
|
|
|
#GOGOEND
|
|
311110,
|
|
010111,
|
|
300000000121200100,
|
|
100200100200100020001000200010002000,
|
|
13,
|
|
|
|
|
|
#NEXTSONG memoria ficta,Versus,ナムコオリジナル,memoria ficta.ogg,470,113
|
|
EXAM4:r,53,61,m
|
|
|
|
|
|
#DELAY 2.105
|
|
#MEASURE 4/4
|
|
#BPMCHANGE 125
|
|
2000002020222020,
|
|
20202022,
|
|
20202222,
|
|
20000012,
|
|
2000202010000012,
|
|
20221012,
|
|
20022020,
|
|
|
|
#BPMCHANGE 250
|
|
10212211,
|
|
00212211,
|
|
2002002002002010,
|
|
10230304,
|
|
0000201120201010,
|
|
0011201020201010,
|
|
0011201020201000,
|
|
0010102030040040,
|
|
|
|
0010201120201010,
|
|
0010201022201110,
|
|
2220111022201010,
|
|
1120112011201120,
|
|
2121212121212121,
|
|
,
|
|
,
|
|
7,
|
|
0008,
|
|
|
|
#GOGOSTART
|
|
3000000030040030,
|
|
0000000030040040,
|
|
0000000040040030,
|
|
0022112211221120,
|
|
3000000030030040,
|
|
0221122112211220,
|
|
02121122,
|
|
2121212121222000,
|
|
|
|
0000300030040030,
|
|
2220112030040040,
|
|
1110221040040030,
|
|
01121211,
|
|
10201121,
|
|
1221122112211220,
|
|
30443406,
|
|
0080102220201020,
|
|
#GOGOEND
|
|
|
|
10012212,
|
|
1022221020201020,
|
|
10212101,
|
|
0010201001002000,
|
|
00102101,
|
|
2222102210221022,
|
|
10101221,
|
|
00102100,
|
|
|
|
10012212,
|
|
1022221020201020,
|
|
10212101,
|
|
0010201001002000,
|
|
00102101,
|
|
2222102210221022,
|
|
10101225,
|
|
000000000008000000000000000000200000200000200000,
|
|
|
|
10222201,
|
|
0022202020202020,
|
|
1022202020202010,
|
|
02221022,
|
|
10221201,
|
|
0022201020201020,
|
|
1000200010201120,
|
|
0020102020100011,
|
|
|
|
10211221,
|
|
0011202010102010,
|
|
10211221,
|
|
01221122,
|
|
1020102210201022,
|
|
1020102210201000,
|
|
1000201110102010,
|
|
10210120,
|
|
|
|
1000201110102020,
|
|
1110201020102000,
|
|
1020102210201022,
|
|
1020102210201022,
|
|
1010112210112210,
|
|
30030040,
|
|
,
|
|
,
|
|
|
|
#GOGOSTART
|
|
30030040,
|
|
21221112,
|
|
1000112000102000,
|
|
500000000000000000000008000000000000100000200000,
|
|
10120120,
|
|
1120001120002000,
|
|
2011221022101050,
|
|
000008000000200200100100200200100100200200200200,
|
|
|
|
1000102010002222,
|
|
1020102022112210,
|
|
1000112010001020,
|
|
1000111010112222,
|
|
1000102010102220,
|
|
1000102011102220,
|
|
1000112010112220,
|
|
1170000000802220,
|
|
#GOGOEND
|
|
|
|
30030403,
|
|
0000102211101020,
|
|
2011222010202210,
|
|
0020100011201000,
|
|
20000020,
|
|
22,
|
|
|
|
#GOGOSTART
|
|
2011102011112010,
|
|
0010201011202220,
|
|
2011102011222022,
|
|
1111221111222222,
|
|
#GOGOEND
|
|
,
|
|
22,
|
|
3,
|
|
|
|
|
|
#END
|
|
|