Files
2022-10-19 18:18:47 +02:00

500 lines
8.7 KiB
Plaintext
Raw Permalink Blame History

This file contains ambiguous Unicode characters
This file contains Unicode characters that might be confused with other characters. If you think that this is intentional, you can safely ignore this warning. Use the Escape button to reveal them.
//TJADB Project
TITLE:Nijiiro 2020 Kurouto
SUBTITLE:--Asagao & OK I’m blue rat & Stick Trick ShowTime‼
BPM:220
WAVE:Stick Trick ShowTime!!.ogg
DEMOSTART:38.960
COURSE:Dan
LEVEL:10
BALLOON:22,22,5,5,9,6,10,10
EXAM1:g,100,100,m
EXAM2:jg,50,25,l
EXAM3:jb,6,3,l
#START
#NEXTSONG Asagao,BTB,ナムコオリジナル,Asagao.ogg,470,100
EXAM4:r,105,111,m
#DELAY 2.3
#SCROLL 0.5
1112000000000000,
#BARLINEOFF
1112000000001122,
#BARLINEON
0000000000000000,
#BARLINEOFF
0000122200000000,
#BARLINEON
1112000000000000,
#BARLINEOFF
1122000000001112,
#BARLINEON
,
#BARLINEOFF
,
#SCROLL 1
#BARLINEON
1111,
1111,
1111,
10101011,
11111111,
1111111111112000,
500000000000000008000000500000000000000008000000,
70000008,
12012012,
0011202011221020,
0020100010200011,
2210202210201120,
12012012,
0011202022112020,
0020002000221010,
1020002010221110,
1020001120001020,
0011202011221020,
0020100011200011,
2210202210201120,
1020001120001020,
0011202021112020,
0020002000221010,
1020102210221111,
22,
22,
200000200222,
20022020,
22,
22,
200000200222,
2010001022112211,
1010102020101120,
2010102010202210,
1010102020101120,
2010202020102210,
1010102020101120,
2010102010201120,
1010102020101120,
2010112022111112,
70000008,
500000000000000008000000500000000000000008000000,
#GOGOSTART
2022102022102022,
1020221021121121,
1022101022101022,
1010221020102000,
2022102022102022,
1020221021121122,
1022101022101022,
1012201021121211,
2022101022102022,
1010221021121121,
1022102022101022,
1020221020112000,
2022101022102022,
1010221021121122,
1022102022101022,
100000100200200000100000
#SCROLL 2
500000000000000008000000,
#SCROLL 0.5
#GOGOEND
11220010,
#BARLINEOFF
2,
#BARLINEON
11120010,
#BARLINEOFF
100100200200100010001000,
#BARLINEON
1120202000001000,
#BARLINEOFF
2,
#BARLINEON
11120010,
#BARLINEOFF
22101020
#SCROLL 1
22222222,
#BARLINEON
1111222210201022,
1020102210201010,
1111222210201020,
1111122210101020,
1122112210201022,
1020102210201010,
1122112210101020,
100100200200100200200200100100200200500008000000,
#GOGOSTART
1120201120201120,
2010221022112010,
0022101022101011,
2210201000101020,
1120201120201120,
2010221022112020,
0020002010201120,
2011202010221110,
1120101120101120,
1010221022112010,
0012221011211011,
2210201000101020,
1120101120101120,
1011221121122150,
,
000000000000000000000008000000000000000000000000,
#GOGOEND
#NEXTSONG OK I’m blue rat,E.G.G.,ナムコオリジナル,OK I’m blue rat.ogg,450,100
EXAM4:r,32,34,m
#DELAY 5.023
#MEASURE 3/8
#BPMCHANGE 128
#BARLINEOFF
#MEASURE 3/8
222,
#BARLINEON
#MEASURE 5/8
1020212020,
#MEASURE 7/8
10202210202121,
#MEASURE 5/8
1020212020,
#MEASURE 7/8
10202022010220,
20202120121120,
#MEASURE 5/8
2212012010,
#MEASURE 7/8
22120120221120,
#MEASURE 5/8
2212012010,
#MEASURE 7/8
100000200000100020002000200100100100200000,
#MEASURE 5/4
100000200000200020001000202020000100200000100200202020100000,
#MEASURE 5/8
2212012010,
#MEASURE 7/8
22120120221120,
#MEASURE 5/8
2212012010,
#MEASURE 7/8
100000200000100020002000200100100100200000,
100000200000200020001000202020000100202020,
#MEASURE 5/8
2212012010,
#MEASURE 7/8
22120120221120,
#MEASURE 5/8
2212012010,
#MEASURE 7/8
100000200000100020002000200100100100200000,
100000200000200020001000202020000100202020,
#MEASURE 11/8
100202001201202222111100202001200,
100200200200100200200200200200200200100000100100200200100010000010,
200200200200100100200200200200202010202010100020000010000000200200,
100200200200100200200200200200200200100000100100200200100010000010,
#MEASURE 9/8
200200200200100100200200200200202010202010100020000020,
#MEASURE 9/4
2,
#MEASURE 5/8
1122211110,
#GOGOSTART
#MEASURE 4/4
1021112202112201,
#MEASURE 5/8
200020000100200000200000100000,
#MEASURE 5/4
200000200000100000200200200200200100000200202010000200100000,
#MEASURE 4/4
1021220101201221,
#MEASURE 5/8
200020000100200000200000100000,
#MEASURE 5/4
200000200000100000200200200200200100000200100020000200100000,
#GOGOEND
#MEASURE 5/8
2020220210,
#MEASURE 7/8
400100200200100202010,
#MEASURE 5/8
2010220202,
#MEASURE 7/8
500000000000000008000000700000000000800000,
#GOGOSTART
#MEASURE 4/4
1021112202112201,
#MEASURE 5/8
200020000100200000200000100000,
#MEASURE 5/4
200000200000100000200200200200200100000200202010000200100000,
#MEASURE 4/4
1021220101201221,
#MEASURE 5/8
200020000100200000200000100000,
#MEASURE 5/4
200000200000100000200200200200200100000200100020000200200000,
#GOGOEND
#MEASURE 5/8
1001101010,
#MEASURE 7/8
10100110101111,
#MEASURE 5/8
1001101010,
#MEASURE 7/8
10101110101110,
10101011111110,
#MEASURE 5/8
2020020202,
#MEASURE 7/8
02202020220202,
#MEASURE 5/8
0202020222,
#MEASURE 7/8
20220202202020,
20220202022022,
#MEASURE 5/8
1020120202,
#MEASURE 7/8
12212020221202,
#MEASURE 5/8
0212021222,
#MEASURE 7/8
20221202202120,
#MEASURE 5/4
200000200200000200100200000200200100200200100200202020100000,
#MEASURE 5/8
2212212010,
#MEASURE 7/8
22122120221120,
#MEASURE 5/8
2212212010,
#MEASURE 7/8
100000200000100020002000200200100100200000,
100000200000200020001000202010000100202020,
#MEASURE 11/8
100202001201202222111100202001200,
#MEASURE 5/8
1122211110,
#GOGOSTART
#MEASURE 4/4
1021112202112201,
#MEASURE 5/8
200020000100200000200000100000,
#MEASURE 5/4
200000200000100000200200200200201010100200202010000200100000,
#MEASURE 4/4
1021220101201221,
#MEASURE 5/8
200020000100200000200000100000,
#MEASURE 5/4
200000200000100000200200200200201010100200100020000200100000,
#GOGOEND
#MEASURE 5/8
2020220210,
#MEASURE 7/8
400100200200100202010,
#MEASURE 5/8
2010220202,
#MEASURE 7/8
500000000000000008000000700000000008000000,
#MEASURE 5/8
2212212010,
#MEASURE 7/8
22122120221120,
#MEASURE 5/8
2212212010,
#MEASURE 7/8
100000200000100020002000200200100100200000,
100000200000200020001000202020000100202020,
#MEASURE 13/8
100202001201202222112100202001200000000,
#MEASURE 3/4
#SCROLL 3
#BPMCHANGE 126
3,
#SCROLL 2.5
#BPMCHANGE 128
,
#SCROLL 2
,
#BARLINEOFF
#BPMCHANGE 130
#SCROLL 1
,
#BARLINEON
#MEASURE 4/4
#BPMCHANGE 128
221000000000000000000000,
#NEXTSONG Stick Trick ShowTime‼,MisomyL,ナムコオリジナル,Stick Trick ShowTime!!.ogg,1090,0
EXAM4:r,38,41,m
#DELAY 2.205
#BPMCHANGE 173
#MEASURE 2/4
#BARLINEOFF
22222222,
#GOGOSTART
#MEASURE 4/4
#BARLINEON
1012011010120110,
1021222212210212,
1012011010120110,
1221020212022112,
1022122212021020,
2212212212211020,
#GOGOEND
2021010122221111,
#GOGOSTART
222222300000,
#GOGOEND
1112202212210111,
2020201202020210,
1122212221221222,
1101011110102222,
1222102212210111,
2020212202021221,
200100100200100100100200202020200200100100100100,
1102020304040222,
1021021021020202,
#SCROLL 1.5
1022222222222222,
#SCROLL 1
1021021021020202,
#SCROLL 1.5
1222700000000080,
#SCROLL 1.3
100020111020100020102220,
101010202020700000000800,
#SCROLL 1
1022020222120202,
1012012011112220,
3003003003003030,
#BARLINEOFF
00
#SCROLL 1.5
700008,
#SCROLL 1
#BARLINEON
#GOGOSTART
1222121212020111,
2020201202211010,
1111221201112220,
3003003003004021,
2112021120211210,
300000000300000000300000000300000000202020100100,
2112112212212212,
500000000008000200200200200000200000200000200000,
#GOGOEND
2000200020020020,
2000200020020020,
2000201022121121,
2210201011112210,
#MEASURE 2/4
#SCROLL 1.1
30202220,
#SCROLL 1.15
30202220,
#SCROLL 1.2
30202220,
#SCROLL 1.25
30222220,
#SCROLL 1.3
#MEASURE 4/4
333300333300,
101110101010101110101010,
#GOGOSTART
201010201020102021201010,
101210202010201210202020,
201120112011201020101020,
102010201000102010102020202020000000
#SCROLL 1
200100100100,
1012112012202121,
1021221021121120,
2222221222122121,
#SCROLL 1.3
102010201020102210201020,
100010102000100022202011,
200012201020111010002020,
101020101111102011111020,
200010002020100010002000100000000000
#SCROLL 1
100200200200,
#GOGOEND
1021020212220202,
2012022011122120,
#SCROLL 1.1
3003003003002220,
#SCROLL 1.15
3003003003002210,
#SCROLL 1.2
3003003003003030,
#BARLINEOFF
00
#SCROLL 1.5
700008,
#SCROLL 1
#BARLINEON
2,
2000000010010010,
#GOGOSTART
2222121201112220,
300000000300000000300000000300000000101010101010,
2112021120211210,
3003003003002020,
2112212122112122,
1102020400101010,
1221221212212212,
1201010300202020,
2101122212210122,
200100000100100200200200101020200100200200100200,
2102102102102120,
200100000100201010201010200000000200000000200000,
#GOGOEND
1000200020020020,
1011211121120202,
1011211120120122,
2111221112111222,
1011210121121022,
1221112222221221,
1111111121122112,
200200100100202020100000300000000300000000300000,
#END