301 lines
10 KiB
Plaintext
301 lines
10 KiB
Plaintext
//TJADB Project
|
|
TITLE:Don-chan Ekaki Uta
|
|
TITLEJA:どんちゃんえかき歌
|
|
SUBTITLE:--Yuuji Masubuchi feat. Fushigi Yamada
|
|
BPM:140.030
|
|
WAVE:Don-chan Ekaki Uta.ogg
|
|
OFFSET:-2.021
|
|
DEMOSTART:35.858
|
|
|
|
COURSE:Oni
|
|
LEVEL:2
|
|
BALLOON:8,6
|
|
|
|
|
|
#START
|
|
|
|
|
|
#MEASURE 6/4
|
|
100000000000100000000000100000002020200000002000100000001000000000001000,
|
|
#BARLINEOFF
|
|
100000000000000000001000200000000000000000000000100000000000100000000000,
|
|
#BARLINEON
|
|
100000000000000000001000200000000000000000000000100000000000100000000000,
|
|
#BARLINEOFF
|
|
100000000000000000001000200000000000000000000000100000000000100000000000,
|
|
#BARLINEON
|
|
100000000000000000001000200000000000100000000000000030000000300000000000,
|
|
#MEASURE 6/4
|
|
#BARLINEOFF
|
|
000000000000000000000000000000000000000000000000000000000000000000000000,
|
|
#BARLINEON
|
|
000000000000000000000000000000000000100000000000100000000000100000000000,
|
|
#BARLINEOFF
|
|
100000000000000000000000000000000000000000000000000000000000000000000000,
|
|
#BARLINEON
|
|
100000000000000000001000100000000000100000000000300000000000000000000000,
|
|
#BARLINEOFF
|
|
000000000000000000000000000000000000000000000000000000000000000000000000,
|
|
#BARLINEON
|
|
000000000000000000000000000000000000000000000000000000000000000000000000,
|
|
#BARLINEOFF
|
|
100000000000000000000000100000000000100000000000000000000000100000000000,
|
|
#BARLINEON
|
|
#MEASURE 3/4
|
|
100000000000000000000000100000000000,
|
|
#MEASURE 4/4
|
|
100000000000100000000000700000000000000000000000,
|
|
800000000000100000200000000000000000100000200000,
|
|
000000000000100000200000000000000000100000100000,
|
|
100000100100100000100100100000100100100000100100,
|
|
100000100100100000100100100000100100100000100100,
|
|
100000000000000000000000000000000000000000000000,
|
|
100000000000000000000000000000000000000000000000,
|
|
300000000000300000000000000000000000000000000000,
|
|
#MEASURE 6/4
|
|
100000000000000000001000200000000000000000000000100000002000100000000000,
|
|
#BARLINEOFF
|
|
100000000000000000001000200000000000000000000000100000002000100000000000,
|
|
#BARLINEON
|
|
100000000000000000001000200000000000000000000000100000002000100000000000,
|
|
#BARLINEOFF
|
|
100000000000000000001000200000000000100000000000000030000000300000000000,
|
|
#BARLINEON
|
|
000000000000000000000000000000000000000000000000000000000000000000000000,
|
|
#BARLINEOFF
|
|
000000000000000000000000000000000000100000000000100000000000100000000000,
|
|
#BARLINEON
|
|
100000000000000000000000000000000000000000000000000000000000000000000000,
|
|
#BARLINEOFF
|
|
100000000000000000001000100000000000100000000000300000000000000000000000,
|
|
#BARLINEON
|
|
000000000000200000000000200000000000000000000000200000000000200000000000,
|
|
#BARLINEOFF
|
|
000000000000200000000000200000000000000000000000100000000000000000000000,
|
|
#BARLINEON
|
|
100000000000200000000000100000000000100000000000200000000000100000000000,
|
|
#BARLINEOFF
|
|
#MEASURE 3/4
|
|
100000000000200000000000100000000000,
|
|
#MEASURE 4/4
|
|
#BARLINEON
|
|
100000000000100000000000700000000000000000800000,
|
|
100000000000100000000000700000000000000000800000,
|
|
100000000000100000200000100000000000100000200000,
|
|
100000000000100000200000100000000000100000200000,
|
|
100000100100100000100100100000100100100000100100,
|
|
100000100100100000100100100000100100100100100000,
|
|
100000000000000000000000000000000000000000000000,
|
|
100000000000000000000000000000000000000000000000,
|
|
300000000000300000000000000000000000000000000000,
|
|
#MEASURE 6/4
|
|
100000000000000000001000200000000000000000000000100000000000100000000000,
|
|
#BARLINEOFF
|
|
100000000000000000001000200000000000000000000000100000002020200000000000,
|
|
#BARLINEON
|
|
100000000000200000000000200000000000100000000000200000000000200000000000,
|
|
#BARLINEOFF
|
|
100000000000200000000000200000000000100000000000100000000000100000000000,
|
|
#MEASURE 4/4
|
|
#BARLINEON
|
|
300000000000000000000000000000000000000000000000,
|
|
|
|
|
|
#END
|
|
|
|
|
|
COURSE:Normal
|
|
LEVEL:4
|
|
BALLOON:8,6
|
|
SCOREINIT:920
|
|
SCOREDIFF:250
|
|
|
|
|
|
#START
|
|
|
|
|
|
#MEASURE 6/4
|
|
100000000000100000000000100000002020200000002000100000001000000000001000,
|
|
#BARLINEOFF
|
|
100000000000000000001000200000000000000000000000100000000000100000000000,
|
|
#BARLINEON
|
|
100000000000000000001000200000000000000000000000100000000000100000000000,
|
|
#BARLINEOFF
|
|
100000000000000000001000200000000000000000000000100000000000100000000000,
|
|
#BARLINEON
|
|
100000000000000000001000200000000000100000000000000030000000300000000000,
|
|
#MEASURE 6/4
|
|
#BARLINEOFF
|
|
000000000000000000000000000000000000000000000000000000000000000000000000,
|
|
#BARLINEON
|
|
000000000000000000000000000000000000100000000000100000000000100000000000,
|
|
#BARLINEOFF
|
|
100000000000000000000000000000000000000000000000000000000000000000000000,
|
|
#BARLINEON
|
|
100000000000000000001000100000000000100000000000300000000000000000000000,
|
|
#BARLINEOFF
|
|
000000000000000000000000000000000000000000000000000000000000000000000000,
|
|
#BARLINEON
|
|
000000000000000000000000000000000000000000000000000000000000000000000000,
|
|
#BARLINEOFF
|
|
100000000000000000000000100000000000100000000000000000000000100000000000,
|
|
#BARLINEON
|
|
#MEASURE 3/4
|
|
100000000000000000000000100000000000,
|
|
#MEASURE 4/4
|
|
100000000000100000000000700000000000000000000000,
|
|
800000000000100000200000000000000000100000200000,
|
|
000000000000100000200000000000000000100000100000,
|
|
100000100100100000100100100000100100100000100100,
|
|
100000100100100000100100100000100100100000100100,
|
|
100000000000000000000000000000000000000000000000,
|
|
100000000000000000000000000000000000000000000000,
|
|
300000000000300000000000000000000000000000000000,
|
|
#MEASURE 6/4
|
|
100000000000000000001000200000000000000000000000100000002000100000000000,
|
|
#BARLINEOFF
|
|
100000000000000000001000200000000000000000000000100000002000100000000000,
|
|
#BARLINEON
|
|
100000000000000000001000200000000000000000000000100000002000100000000000,
|
|
#BARLINEOFF
|
|
100000000000000000001000200000000000100000000000000030000000300000000000,
|
|
#BARLINEON
|
|
000000000000000000000000000000000000000000000000000000000000000000000000,
|
|
#BARLINEOFF
|
|
000000000000000000000000000000000000100000000000100000000000100000000000,
|
|
#BARLINEON
|
|
100000000000000000000000000000000000000000000000000000000000000000000000,
|
|
#BARLINEOFF
|
|
100000000000000000001000100000000000100000000000300000000000000000000000,
|
|
#BARLINEON
|
|
000000000000200000000000200000000000000000000000200000000000200000000000,
|
|
#BARLINEOFF
|
|
000000000000200000000000200000000000000000000000100000000000000000000000,
|
|
#BARLINEON
|
|
100000000000200000000000100000000000100000000000200000000000100000000000,
|
|
#BARLINEOFF
|
|
#MEASURE 3/4
|
|
100000000000200000000000100000000000,
|
|
#MEASURE 4/4
|
|
#BARLINEON
|
|
100000000000100000000000700000000000000000800000,
|
|
100000000000100000000000700000000000000000800000,
|
|
100000000000100000200000100000000000100000200000,
|
|
100000000000100000200000100000000000100000200000,
|
|
100000100100100000100100100000100100100000100100,
|
|
100000100100100000100100100000100100100100100000,
|
|
100000000000000000000000000000000000000000000000,
|
|
100000000000000000000000000000000000000000000000,
|
|
300000000000300000000000000000000000000000000000,
|
|
#MEASURE 6/4
|
|
100000000000000000001000200000000000000000000000100000000000100000000000,
|
|
#BARLINEOFF
|
|
100000000000000000001000200000000000000000000000100000002020200000000000,
|
|
#BARLINEON
|
|
100000000000200000000000200000000000100000000000200000000000200000000000,
|
|
#BARLINEOFF
|
|
100000000000200000000000200000000000100000000000100000000000100000000000,
|
|
#MEASURE 4/4
|
|
#BARLINEON
|
|
300000000000000000000000000000000000000000000000,
|
|
|
|
|
|
#END
|
|
|
|
|
|
COURSE:Easy
|
|
LEVEL:4
|
|
SCOREINIT:1290
|
|
SCOREDIFF:480
|
|
|
|
|
|
#START
|
|
|
|
|
|
#MEASURE 6/4
|
|
100000000000100000000000100000000000000000000000100000000000000000000000,
|
|
#BARLINEOFF
|
|
100000000000000000000000200000000000000000000000100000000000100000000000,
|
|
#BARLINEON
|
|
100000000000000000000000200000000000000000000000100000000000100000000000,
|
|
#BARLINEOFF
|
|
100000000000000000000000200000000000000000000000100000000000100000000000,
|
|
#BARLINEON
|
|
100000000000000000000000200000000000000000000000000000000000300000000000,
|
|
#BARLINEOFF
|
|
000000000000000000000000000000000000000000000000000000000000000000000000,
|
|
#BARLINEON
|
|
000000000000000000000000000000000000100000000000100000000000100000000000,
|
|
#BARLINEOFF
|
|
100000000000000000000000000000000000000000000000000000000000000000000000,
|
|
#BARLINEON
|
|
100000000000000000000000100000000000100000000000300000000000000000000000,
|
|
#BARLINEOFF
|
|
000000000000000000000000000000000000000000000000000000000000000000000000,
|
|
#BARLINEON
|
|
000000000000000000000000000000000000000000000000000000000000000000000000,
|
|
#BARLINEOFF
|
|
100000000000000000000000000000000000100000000000000000000000000000000000,
|
|
#BARLINEON
|
|
#MEASURE 3/4
|
|
100000000000000000000000000000000000,
|
|
#MEASURE 4/4
|
|
100000000000100000000000500000000000000008000000,
|
|
100000000000000000000000100000000000000000000000,
|
|
100000000000000000000000100000000000000000000000,
|
|
100000000000100000000000100000000000100000000000,
|
|
100000000000100000000000100000000000100000000000,
|
|
100000000000000000000000000000000000000000000000,
|
|
100000000000000000000000000000000000000000000000,
|
|
300000000000300000000000000000000000000000000000,
|
|
#MEASURE 6/4
|
|
100000000000000000000000200000000000000000000000100000000000100000000000,
|
|
#BARLINEOFF
|
|
100000000000000000000000200000000000000000000000100000000000100000000000,
|
|
#BARLINEON
|
|
100000000000000000000000200000000000000000000000100000000000100000000000,
|
|
#BARLINEOFF
|
|
100000000000000000000000200000000000100000000000000000000000300000000000,
|
|
#BARLINEON
|
|
000000000000000000000000000000000000000000000000000000000000000000000000,
|
|
#BARLINEOFF
|
|
000000000000000000000000000000000000100000000000100000000000100000000000,
|
|
#BARLINEON
|
|
100000000000000000000000000000000000000000000000000000000000000000000000,
|
|
#BARLINEOFF
|
|
100000000000000000000000000000000000100000000000300000000000000000000000,
|
|
#BARLINEON
|
|
000000000000200000000000200000000000000000000000200000000000200000000000,
|
|
#BARLINEOFF
|
|
000000000000200000000000200000000000000000000000100000000000000000000000,
|
|
#BARLINEON
|
|
100000000000000000000000000000000000100000000000000000000000000000000000,
|
|
#BARLINEOFF
|
|
#MEASURE 3/4
|
|
100000000000000000000000000000000000,
|
|
#BARLINEON
|
|
#MEASURE 4/4
|
|
100000000000100000000000500000000000000008000000,
|
|
100000000000000000000000100000000000000000000000,
|
|
100000000000000000000000100000000000000000000000,
|
|
100000000000100000000000100000000000100000000000,
|
|
100000000000100000000000100000000000100000000000,
|
|
100000000000000000000000000000000000000000000000,
|
|
100000000000000000000000000000000000000000000000,
|
|
300000000000300000000000000000000000000000000000,
|
|
#MEASURE 6/4
|
|
100000000000000000000000200000000000000000000000100000000000100000000000,
|
|
#BARLINEOFF
|
|
100000000000000000000000200000000000000000000000100000000000100000000000,
|
|
#BARLINEON
|
|
100000000000000000000000000000000000100000000000000000000000000000000000,
|
|
#BARLINEOFF
|
|
100000000000100000000000100000000000100000000000100000000000100000000000,
|
|
#BARLINEON
|
|
#MEASURE 4/4
|
|
300000000000000000000000000000000000000000000000,
|
|
|
|
|
|
#END
|
|
|