782 lines
6.9 KiB
Plaintext
782 lines
6.9 KiB
Plaintext
//TJADB Project
|
|
TITLE:Hikari no Kanata e -Long Version-
|
|
TITLEJA:ヒカリノカナタヘ -Long Version-
|
|
SUBTITLE:--Yoshihito Yano feat. Takayoshi Tanimoto
|
|
BPM:146
|
|
WAVE:Hikari no Kanata e -Long Version-.ogg
|
|
OFFSET:-13.328
|
|
DEMOSTART:138.233
|
|
|
|
COURSE:Oni
|
|
LEVEL:9
|
|
BALLOON:46,46,50,55,67
|
|
SCOREINIT:310
|
|
SCOREDIFF:70
|
|
|
|
|
|
#START
|
|
|
|
|
|
0,
|
|
0,
|
|
0,
|
|
0,
|
|
0,
|
|
0,
|
|
0,
|
|
0003,
|
|
1202120212021020,
|
|
1202120212021110,
|
|
1202120212021020,
|
|
1202120212021110,
|
|
1202120212021020,
|
|
1202120212021110,
|
|
1202120212021020,
|
|
1202120212021011,
|
|
1022102012021020,
|
|
1022102011010000,
|
|
1022102012021020,
|
|
1022102022020000,
|
|
1011101021011020,
|
|
1011201021012020,
|
|
1011101020222020,
|
|
1110111011111022,
|
|
1011201021012010,
|
|
1011201021012010,
|
|
1011201021012010,
|
|
1110222011102022,
|
|
1022102012021020,
|
|
1022102011010000,
|
|
1022102012021020,
|
|
1022102022020000,
|
|
2011102012021020,
|
|
2011102012021010,
|
|
1011101020222020,
|
|
1111222021021020,
|
|
9,
|
|
0,
|
|
08,
|
|
0,
|
|
9,
|
|
0,
|
|
08,
|
|
0,
|
|
0,
|
|
0,
|
|
0,
|
|
0,
|
|
0,
|
|
0,
|
|
0,
|
|
0,
|
|
0,
|
|
0,
|
|
0,
|
|
0,
|
|
#GOGOSTART
|
|
2211221122112211,
|
|
2211221122112020,
|
|
2211221122112211,
|
|
2211221122111010,
|
|
#GOGOEND
|
|
2010112101102010,
|
|
1121011020101101,
|
|
2210102011012210,
|
|
1122102011111110,
|
|
#GOGOSTART
|
|
2010112101101020,
|
|
1221011012022020,
|
|
1020122101102011,
|
|
1020111021101101,
|
|
#GOGOEND
|
|
121212121212,
|
|
112211121212,
|
|
112211121212,
|
|
112211121212,
|
|
1122112211221122,
|
|
1122112211221122,
|
|
1022102010220021,
|
|
1022102000210020,
|
|
#GOGOSTART
|
|
1222122212221222,
|
|
1221221221221222,
|
|
1222122212221222,
|
|
1221221221221000,
|
|
1222122212221222,
|
|
1221221221221222,
|
|
1222122212221222,
|
|
1221221221221000,
|
|
#GOGOEND
|
|
#SCROLL 1.6
|
|
9,
|
|
0,
|
|
08,
|
|
0,
|
|
9,
|
|
0,
|
|
08,
|
|
0,
|
|
#SCROLL 1
|
|
0,
|
|
0,
|
|
0,
|
|
0,
|
|
0,
|
|
0,
|
|
0,
|
|
0,
|
|
#MEASURE 3/4
|
|
0,
|
|
#MEASURE 4/4
|
|
0,
|
|
#MEASURE 3/4
|
|
0,
|
|
#MEASURE 4/4
|
|
0,
|
|
0,
|
|
#MEASURE 2/4
|
|
0,
|
|
|
|
#MEASURE 4/4
|
|
3000102011011020,
|
|
#MEASURE 3/4
|
|
112210201111,
|
|
#MEASURE 4/4
|
|
1000102011011020,
|
|
#MEASURE 3/4
|
|
102210201111,
|
|
#MEASURE 4/4
|
|
1000102011011020,
|
|
#MEASURE 3/4
|
|
112210201111,
|
|
#MEASURE 4/4
|
|
1000102011011020,
|
|
#MEASURE 3/4
|
|
111122221000,
|
|
#MEASURE 4/4
|
|
1021021012210210,
|
|
#MEASURE 3/4
|
|
102102101222,
|
|
#MEASURE 4/4
|
|
1021021012210210,
|
|
#MEASURE 3/4
|
|
102102101222,
|
|
#MEASURE 4/4
|
|
1011011022120210,
|
|
#MEASURE 3/4
|
|
101101102222,
|
|
#MEASURE 4/4
|
|
1110111011101110,
|
|
1120112011201120,
|
|
1222122212221222,
|
|
212121221212,
|
|
#MEASURE 3/4
|
|
111122221000,
|
|
#MEASURE 4/4
|
|
1221001010212210,
|
|
#MEASURE 3/4
|
|
#GOGOSTART
|
|
#SCROLL 2
|
|
122122121221,
|
|
221212212212,
|
|
#GOGOEND
|
|
122122121221,
|
|
221212212212,
|
|
#GOGOSTART
|
|
122122121221,
|
|
#MEASURE 4/4
|
|
2212122122121110,
|
|
#GOGOEND
|
|
1221002010212210,
|
|
2212021011120210,
|
|
#SCROLL 3
|
|
9,
|
|
0,
|
|
0008,
|
|
#MEASURE 2/4
|
|
0,
|
|
#MEASURE 4/4
|
|
0,
|
|
03,
|
|
|
|
|
|
#END
|
|
|
|
|
|
COURSE:Hard
|
|
LEVEL:8
|
|
BALLOON:38,38,46,50,50
|
|
SCOREINIT:410
|
|
SCOREDIFF:85
|
|
|
|
|
|
#START
|
|
|
|
|
|
0,
|
|
0,
|
|
0,
|
|
0,
|
|
0,
|
|
0,
|
|
0,
|
|
0003,
|
|
1110111011011000,
|
|
1110111011011000,
|
|
1110111011011000,
|
|
1110111010004000,
|
|
1110111011011000,
|
|
1110111011011000,
|
|
1110111011011000,
|
|
1110111010004000,
|
|
1110100011011000,
|
|
1110111010000000,
|
|
2220200022022000,
|
|
2220222020000000,
|
|
1011101010111000,
|
|
2022202020222000,
|
|
1011101020222020,
|
|
1110100011101000,
|
|
1110111011011000,
|
|
1110111011011000,
|
|
1110111011011000,
|
|
1110111010004000,
|
|
1110100011011000,
|
|
1110111010000000,
|
|
2220200022022000,
|
|
2220222020000000,
|
|
1110100011011020,
|
|
1110100022022020,
|
|
1110111010002000,
|
|
2220222022202000,
|
|
9,
|
|
0,
|
|
08,
|
|
0,
|
|
9,
|
|
0,
|
|
08,
|
|
0,
|
|
0,
|
|
0,
|
|
0,
|
|
0,
|
|
0,
|
|
0,
|
|
0,
|
|
0,
|
|
0,
|
|
0,
|
|
0,
|
|
0,
|
|
#GOGOSTART
|
|
1110111011102020,
|
|
1110111011102000,
|
|
1110111011102020,
|
|
1110111011102000,
|
|
#GOGOEND
|
|
2010111011102010,
|
|
1110111020101110,
|
|
1110102011102010,
|
|
1110102011111110,
|
|
#GOGOSTART
|
|
2010111011101020,
|
|
1110111020222020,
|
|
1020111011102011,
|
|
1020111020111000,
|
|
#GOGOEND
|
|
111222,
|
|
111222,
|
|
111222,
|
|
111222,
|
|
1110222011102220,
|
|
1110222011102220,
|
|
1110002000220011,
|
|
1022202000110000,
|
|
#GOGOSTART
|
|
30030030,
|
|
40040040,
|
|
30030030,
|
|
6008,
|
|
30030030,
|
|
40040040,
|
|
30030030,
|
|
6008,
|
|
#GOGOEND
|
|
#SCROLL 1.5
|
|
9,
|
|
0,
|
|
08,
|
|
0,
|
|
9,
|
|
0,
|
|
08,
|
|
0,
|
|
#SCROLL 1
|
|
0,
|
|
0,
|
|
0,
|
|
0,
|
|
0,
|
|
0,
|
|
0,
|
|
0,
|
|
#MEASURE 3/4
|
|
0,
|
|
#MEASURE 4/4
|
|
0,
|
|
#MEASURE 3/4
|
|
0,
|
|
#MEASURE 4/4
|
|
0,
|
|
0,
|
|
#MEASURE 2/4
|
|
0,
|
|
#MEASURE 4/4
|
|
10201012,
|
|
#MEASURE 3/4
|
|
101120,
|
|
#MEASURE 4/4
|
|
10201012,
|
|
#MEASURE 3/4
|
|
110,
|
|
#MEASURE 4/4
|
|
10201012,
|
|
#MEASURE 3/4
|
|
101110,
|
|
#MEASURE 4/4
|
|
20102012,
|
|
#MEASURE 3/4
|
|
122,
|
|
#MEASURE 4/4
|
|
1000111011011010,
|
|
#MEASURE 3/4
|
|
100011101000,
|
|
#MEASURE 4/4
|
|
2000222022022020,
|
|
#MEASURE 3/4
|
|
220,
|
|
#MEASURE 4/4
|
|
1000111011011010,
|
|
#MEASURE 3/4
|
|
100011101000,
|
|
#MEASURE 4/4
|
|
1110111011101110,
|
|
1120112011201120,
|
|
2220222022202220,
|
|
111111222222,
|
|
#MEASURE 3/4
|
|
100011101000,
|
|
#MEASURE 4/4
|
|
#GOGOSTART
|
|
#SCROLL 1.5
|
|
1020111010201110,
|
|
#MEASURE 3/4
|
|
200022202000,
|
|
102011201020,
|
|
#GOGOEND
|
|
112010201110,
|
|
102011101020,
|
|
112010201120,
|
|
#GOGOSTART
|
|
#MEASURE 4/4
|
|
1110222011102220,
|
|
1110222011102220,
|
|
#GOGOEND
|
|
1110111011101110,
|
|
9,
|
|
0,
|
|
0008,
|
|
#MEASURE 2/4
|
|
0,
|
|
#MEASURE 4/4
|
|
0,
|
|
03,
|
|
|
|
|
|
#END
|
|
|
|
|
|
COURSE:Normal
|
|
LEVEL:5
|
|
BALLOON:30,35,30,35,40,45
|
|
SCOREINIT:930
|
|
SCOREDIFF:270
|
|
|
|
|
|
#START
|
|
|
|
|
|
0,
|
|
0,
|
|
0,
|
|
0,
|
|
0,
|
|
0,
|
|
0,
|
|
0003,
|
|
10101110,
|
|
11100020,
|
|
10101110,
|
|
11100020,
|
|
10101110,
|
|
22200020,
|
|
10101110,
|
|
22200020,
|
|
10101011,
|
|
1110,
|
|
10101011,
|
|
1110,
|
|
10111010,
|
|
20222020,
|
|
1122,
|
|
11102220,
|
|
5,
|
|
08,
|
|
0,
|
|
0003,
|
|
10101011,
|
|
10111000,
|
|
10101011,
|
|
10111000,
|
|
10111010,
|
|
20222020,
|
|
11101110,
|
|
22202220,
|
|
9,
|
|
0,
|
|
08,
|
|
0,
|
|
9,
|
|
0,
|
|
08,
|
|
0,
|
|
0,
|
|
0,
|
|
0,
|
|
0,
|
|
0,
|
|
0,
|
|
0,
|
|
0,
|
|
0,
|
|
0,
|
|
0,
|
|
0,
|
|
#GOGOSTART
|
|
10101111,
|
|
1120,
|
|
10101111,
|
|
1120,
|
|
#GOGOEND
|
|
10101110,
|
|
22202020,
|
|
10101110,
|
|
22202220,
|
|
#GOGOSTART
|
|
10101110,
|
|
22202020,
|
|
10101110,
|
|
22202220,
|
|
#GOGOEND
|
|
9,
|
|
0,
|
|
08,
|
|
0,
|
|
10121010,
|
|
10121010,
|
|
10212010,
|
|
10212000,
|
|
#GOGOSTART
|
|
#SCROLL 1.5
|
|
30030030,
|
|
40040040,
|
|
30030030,
|
|
6008,
|
|
30030030,
|
|
40040040,
|
|
30030030,
|
|
6008,
|
|
#GOGOEND
|
|
9,
|
|
0,
|
|
08,
|
|
0,
|
|
9,
|
|
0,
|
|
08,
|
|
0,
|
|
#SCROLL 1
|
|
0,
|
|
0,
|
|
0,
|
|
0,
|
|
0,
|
|
0,
|
|
0,
|
|
0,
|
|
#MEASURE 3/4
|
|
,
|
|
#MEASURE 4/4
|
|
,
|
|
#MEASURE 3/4
|
|
,
|
|
#MEASURE 4/4
|
|
,
|
|
,
|
|
#MEASURE 2/4
|
|
,
|
|
|
|
#MEASURE 4/4
|
|
10101011,
|
|
#MEASURE 3/4
|
|
101120,
|
|
#MEASURE 4/4
|
|
10101011,
|
|
#MEASURE 3/4
|
|
120,
|
|
#MEASURE 4/4
|
|
10101011,
|
|
#MEASURE 3/4
|
|
101120,
|
|
#MEASURE 4/4
|
|
10101011,
|
|
#MEASURE 3/4
|
|
120,
|
|
#MEASURE 4/4
|
|
10202022,
|
|
#MEASURE 3/4
|
|
202220,
|
|
#MEASURE 4/4
|
|
10202022,
|
|
#MEASURE 3/4
|
|
210,
|
|
#MEASURE 4/4
|
|
10101011,
|
|
#MEASURE 3/4
|
|
102220,
|
|
#MEASURE 4/4
|
|
5,
|
|
00080010,
|
|
20102012,
|
|
12125000,
|
|
#MEASURE 3/4
|
|
008,
|
|
#GOGOSTART
|
|
#MEASURE 4/4
|
|
1111,
|
|
#MEASURE 3/4
|
|
222,
|
|
111,
|
|
222,
|
|
111,
|
|
222,
|
|
#MEASURE 4/4
|
|
10101110,
|
|
10101110,
|
|
11101110,
|
|
9,
|
|
0,
|
|
0008,
|
|
#MEASURE 2/4
|
|
0,
|
|
#MEASURE 4/4
|
|
0,
|
|
03,
|
|
#GOGOEND
|
|
|
|
|
|
#END
|
|
|
|
|
|
COURSE:Easy
|
|
LEVEL:4
|
|
BALLOON:38,38,46,50,50
|
|
SCOREINIT:650
|
|
SCOREDIFF:188
|
|
|
|
|
|
#START
|
|
|
|
|
|
0,
|
|
0,
|
|
0,
|
|
0,
|
|
0,
|
|
0,
|
|
0,
|
|
0,
|
|
1111,
|
|
1110,
|
|
1111,
|
|
1110,
|
|
2222,
|
|
2220,
|
|
2222,
|
|
2220,
|
|
1111,
|
|
2220,
|
|
1111,
|
|
2220,
|
|
10011010,
|
|
20022020,
|
|
1122,
|
|
1122,
|
|
5,
|
|
08,
|
|
0,
|
|
0,
|
|
1111,
|
|
10111000,
|
|
2222,
|
|
20222000,
|
|
1122,
|
|
1122,
|
|
1111,
|
|
2222,
|
|
9,
|
|
0,
|
|
08,
|
|
0,
|
|
9,
|
|
0,
|
|
08,
|
|
0,
|
|
0,
|
|
0,
|
|
0,
|
|
0,
|
|
0,
|
|
0,
|
|
0,
|
|
0,
|
|
0,
|
|
0,
|
|
0,
|
|
0,
|
|
#GOGOSTART
|
|
1111,
|
|
1122,
|
|
1111,
|
|
1120,
|
|
#GOGOEND
|
|
1111,
|
|
2222,
|
|
1111,
|
|
20202222,
|
|
#GOGOSTART
|
|
1111,
|
|
2222,
|
|
1212,
|
|
1111,
|
|
#GOGOEND
|
|
9,
|
|
0,
|
|
08,
|
|
0,
|
|
1111,
|
|
2222,
|
|
1212,
|
|
10111000,
|
|
#GOGOSTART
|
|
30030030,
|
|
40040040,
|
|
30030030,
|
|
6008,
|
|
30030030,
|
|
40040040,
|
|
30030030,
|
|
6008,
|
|
#GOGOEND
|
|
#SCROLL 1.5
|
|
9,
|
|
0,
|
|
08,
|
|
0,
|
|
9,
|
|
0,
|
|
08,
|
|
0,
|
|
#SCROLL 1
|
|
0,
|
|
0,
|
|
0,
|
|
0,
|
|
0,
|
|
0,
|
|
0,
|
|
0,
|
|
#MEASURE 3/4
|
|
0,
|
|
#MEASURE 4/4
|
|
0,
|
|
#MEASURE 3/4
|
|
0,
|
|
#MEASURE 4/4
|
|
0,
|
|
0,
|
|
#MEASURE 2/4
|
|
0,
|
|
#MEASURE 4/4
|
|
11,
|
|
#MEASURE 3/4
|
|
101110,
|
|
#MEASURE 4/4
|
|
11,
|
|
#MEASURE 3/4
|
|
110,
|
|
#MEASURE 4/4
|
|
11,
|
|
#MEASURE 3/4
|
|
101110,
|
|
#MEASURE 4/4
|
|
11,
|
|
#MEASURE 3/4
|
|
110,
|
|
#MEASURE 4/4
|
|
22,
|
|
#MEASURE 3/4
|
|
202220,
|
|
#MEASURE 4/4
|
|
22,
|
|
#MEASURE 3/4
|
|
220,
|
|
#MEASURE 4/4
|
|
10101110,
|
|
#MEASURE 3/4
|
|
202022,
|
|
#MEASURE 4/4
|
|
5,
|
|
00080010,
|
|
1112,
|
|
2250,
|
|
#GOGOSTART
|
|
#MEASURE 3/4
|
|
008,
|
|
#MEASURE 4/4
|
|
10101110,
|
|
#MEASURE 3/4
|
|
202,
|
|
101011,
|
|
202,
|
|
101011,
|
|
202,
|
|
#MEASURE 4/4
|
|
10101110,
|
|
10201120,
|
|
10201120,
|
|
9,
|
|
0,
|
|
0008,
|
|
#MEASURE 2/4
|
|
0,
|
|
#MEASURE 4/4
|
|
0,
|
|
03,
|
|
#GOGOEND
|
|
|
|
|
|
#END
|
|
|