638 lines
7.2 KiB
Plaintext
638 lines
7.2 KiB
Plaintext
//TJADB Project
|
|
TITLE:Ishiki no Waze
|
|
TITLEJA:意識のワーゼ
|
|
SUBTITLE:--Hisui
|
|
BPM:132
|
|
WAVE:Ishiki no Waze.ogg
|
|
OFFSET:-2.037
|
|
DEMOSTART:110.248
|
|
|
|
COURSE:Oni
|
|
LEVEL:9
|
|
BALLOON:6
|
|
SCOREINIT:540
|
|
SCOREDIFF:133
|
|
|
|
|
|
#START
|
|
|
|
|
|
#MEASURE 3/4
|
|
#SCROLL 0.95
|
|
122220112220,
|
|
222012201120,
|
|
#MEASURE 5/8
|
|
#BPMCHANGE 88
|
|
#SCROLL 1.43
|
|
1212111222,
|
|
#BPMCHANGE 126
|
|
#SCROLL 1
|
|
3,
|
|
,
|
|
,
|
|
,
|
|
,
|
|
1001010200,
|
|
1002020200,
|
|
1001010200,
|
|
1002020221,
|
|
1201010210,
|
|
1102020210,
|
|
1201010210,
|
|
1102020210,
|
|
1201010210,
|
|
1102020210,
|
|
1201010210,
|
|
1101020210,
|
|
1201010210,
|
|
1102020210,
|
|
1201010210,
|
|
1102020210,
|
|
1201010210,
|
|
1102020210,
|
|
500000000000000000000008000000,
|
|
500000000000000000000008000000,
|
|
#MEASURE 3/4
|
|
102120102020,
|
|
#MEASURE 5/8
|
|
1021201020,
|
|
#MEASURE 3/4
|
|
201210201010,
|
|
#MEASURE 5/8
|
|
2012102010,
|
|
#MEASURE 3/4
|
|
102120102020,
|
|
#MEASURE 5/8
|
|
1021221121,
|
|
#MEASURE 3/4
|
|
201210201010,
|
|
#MEASURE 4/4
|
|
2010303030002210,
|
|
#MEASURE 5/8
|
|
1201010210,
|
|
#BPMCHANGE 127
|
|
#SCROLL 0.99
|
|
1102020210,
|
|
#BPMCHANGE 126
|
|
#SCROLL 1
|
|
1201010210,
|
|
1102020210,
|
|
1201010210,
|
|
1102020210,
|
|
1201010222,
|
|
1112020211,
|
|
2101010210,
|
|
2102020211,
|
|
2101010212,
|
|
2102020210,
|
|
2101010202,
|
|
1212121211,
|
|
1021120201,
|
|
500000000000000000000000000008,
|
|
0021010102,
|
|
#MEASURE 4/4
|
|
10211201,
|
|
#MEASURE 3/4
|
|
121221,
|
|
#MEASURE 4/4
|
|
10211201,
|
|
00212120,
|
|
10211201,
|
|
#MEASURE 3/4
|
|
121221,
|
|
#MEASURE 4/4
|
|
10211202,
|
|
00212111,
|
|
#MEASURE 7/8
|
|
#BPMCHANGE 106
|
|
#SCROLL 1.18
|
|
4,
|
|
,
|
|
1000010,
|
|
1000010,
|
|
1021010,
|
|
1021111,
|
|
|
|
#GOGOSTART
|
|
#BPMCHANGE 126
|
|
#SCROLL 1
|
|
11210211210202,
|
|
11210211210202,
|
|
11210211210202,
|
|
11210211120202,
|
|
12210212210202,
|
|
12210122120202,
|
|
12210212210202,
|
|
12210122120211,
|
|
|
|
#GOGOEND
|
|
#MEASURE 9/8
|
|
211202020111202020,
|
|
#MEASURE 2/4
|
|
7008,
|
|
|
|
#GOGOSTART
|
|
#MEASURE 4/4
|
|
1021111010211110,
|
|
1021112010211122,
|
|
1021111010211110,
|
|
1021112110404022,
|
|
1021111010211110,
|
|
1021112010211120,
|
|
1022122010221221,
|
|
2212221010020020,
|
|
#MEASURE 5/8
|
|
1020120101,
|
|
2010210212,
|
|
1020120101,
|
|
2012210212,
|
|
#MEASURE 3/4
|
|
100211200202,
|
|
100211200212,
|
|
101202101202,
|
|
|
|
#GOGOEND
|
|
#MEASURE 7/8
|
|
10122220112220,
|
|
#MEASURE 3/4
|
|
222012201120,
|
|
#MEASURE 4/4
|
|
121212111222,
|
|
#MEASURE 7/8
|
|
500000000000000000000000000000000000000008,
|
|
#MEASURE 4/4
|
|
0300,
|
|
|
|
|
|
#END
|
|
|
|
|
|
COURSE:Hard
|
|
LEVEL:7
|
|
BALLOON:6
|
|
SCOREINIT:530
|
|
SCOREDIFF:143
|
|
|
|
|
|
#START
|
|
|
|
|
|
#MEASURE 3/4
|
|
#BPMCHANGE 130
|
|
111110111110,
|
|
111011101110,
|
|
#BPMCHANGE 89.67
|
|
#SCROLL 1.45
|
|
#MEASURE 5/8
|
|
1122112211,
|
|
#SCROLL 1.03
|
|
#BPMCHANGE 126
|
|
3,
|
|
,
|
|
,
|
|
,
|
|
,
|
|
1000000200,
|
|
1000000200,
|
|
1000000200,
|
|
1002020200,
|
|
1101010100,
|
|
1101010200,
|
|
1101010100,
|
|
1101020200,
|
|
1101010100,
|
|
1101010200,
|
|
1101010100,
|
|
1101020200,
|
|
1101010100,
|
|
1101010200,
|
|
1101010100,
|
|
1101020200,
|
|
1101010100,
|
|
1101010200,
|
|
500000000000000000000000000000000000000000000008000000000000,
|
|
500000000000000000000000000000000000000000000008000000000000,
|
|
#MEASURE 3/4
|
|
122122,
|
|
#MEASURE 5/8
|
|
12212,
|
|
#MEASURE 3/4
|
|
211211,
|
|
#MEASURE 5/8
|
|
21121,
|
|
#MEASURE 3/4
|
|
122122,
|
|
#MEASURE 5/8
|
|
12212,
|
|
#MEASURE 3/4
|
|
211211,
|
|
#MEASURE 4/4
|
|
21333000,
|
|
#MEASURE 5/8
|
|
1101010100,
|
|
1101010200,
|
|
1101010100,
|
|
1101010200,
|
|
1101010100,
|
|
1101010200,
|
|
1101010100,
|
|
1101010110,
|
|
1101010100,
|
|
1101010110,
|
|
1101010111,
|
|
1101010200,
|
|
1101010200,
|
|
1111010100,
|
|
2011020200,
|
|
500000000000000000000000000000000000000000000000000000000008,
|
|
,
|
|
#MEASURE 4/4
|
|
10201201,
|
|
#MEASURE 3/4
|
|
020201,
|
|
#MEASURE 4/4
|
|
10201201,
|
|
00212120,
|
|
#MEASURE 4/4
|
|
10201201,
|
|
#MEASURE 3/4
|
|
020201,
|
|
#MEASURE 4/4
|
|
10201202,
|
|
00212111,
|
|
#MEASURE 7/8
|
|
#SCROLL 1.23
|
|
#BPMCHANGE 106
|
|
4,
|
|
,
|
|
1000010,
|
|
1000010,
|
|
1021010,
|
|
1021111,
|
|
|
|
#GOGOSTART
|
|
#SCROLL 1.03
|
|
#BPMCHANGE 126
|
|
30010010010201,
|
|
10010010010201,
|
|
10010010010201,
|
|
10010010020202,
|
|
10010110010201,
|
|
10010110020202,
|
|
10010110010202,
|
|
10010110040404,
|
|
|
|
#GOGOEND
|
|
#MEASURE 9/8
|
|
000101010000202020,
|
|
#MEASURE 2/4
|
|
7008,
|
|
|
|
#GOGOSTART
|
|
#MEASURE 4/4
|
|
1020111010201110,
|
|
1020111010201000,
|
|
1020111010201110,
|
|
1011102010404000,
|
|
1020111010201110,
|
|
1020111010201000,
|
|
1020111010201110,
|
|
2022201020020020,
|
|
#MEASURE 5/8
|
|
1010110101,
|
|
2,
|
|
1010110101,
|
|
500000000000000000000000000000000008000000000000000000000000,
|
|
#MEASURE 3/4
|
|
100011200000,
|
|
100011200000,
|
|
300300400400,
|
|
|
|
#GOGOEND
|
|
#MEASURE 7/8
|
|
30111110111110,
|
|
#MEASURE 3/4
|
|
111011101110,
|
|
#MEASURE 4/4
|
|
112211221122,
|
|
#MEASURE 7/8
|
|
50000000000000000000000000000000000000000000000000000008,
|
|
#MEASURE 4/4
|
|
0300,
|
|
|
|
|
|
#END
|
|
|
|
|
|
COURSE:Normal
|
|
LEVEL:6
|
|
BALLOON:4
|
|
SCOREINIT:720
|
|
SCOREDIFF:218
|
|
|
|
|
|
#START
|
|
|
|
|
|
#MEASURE 3/4
|
|
#BPMCHANGE 130
|
|
100100,
|
|
111,
|
|
#BPMCHANGE 89.67
|
|
#SCROLL 1.45
|
|
#MEASURE 5/8
|
|
12121,
|
|
#SCROLL 1.03
|
|
#BPMCHANGE 126
|
|
3,
|
|
,
|
|
,
|
|
,
|
|
,
|
|
1,
|
|
1,
|
|
1,
|
|
1,
|
|
1,
|
|
1000010200,
|
|
1,
|
|
1001020200,
|
|
1,
|
|
1001020200,
|
|
1,
|
|
1000020200,
|
|
1,
|
|
1000010200,
|
|
1,
|
|
1001020200,
|
|
1000000000,
|
|
1001020200,
|
|
500000000000000000000000000000000000000000000008000000000000,
|
|
500000000000000000000000000000000000000000000008000000000000,
|
|
#MEASURE 6/8
|
|
100000100000,
|
|
#MEASURE 5/8
|
|
2000002000,
|
|
#MEASURE 6/8
|
|
11,
|
|
#MEASURE 5/8
|
|
2000002010,
|
|
#MEASURE 6/8
|
|
11,
|
|
#MEASURE 5/8
|
|
2000002010,
|
|
#MEASURE 6/8
|
|
11,
|
|
#MEASURE 8/8
|
|
20333000,
|
|
#MEASURE 5/8
|
|
1,
|
|
1000010200,
|
|
1,
|
|
1001020200,
|
|
1,
|
|
1001020200,
|
|
1,
|
|
1001010100,
|
|
2,
|
|
1000010100,
|
|
1,
|
|
1001010200,
|
|
1000020200,
|
|
1001010100,
|
|
1001020200,
|
|
500000000000000000000000000000000000000000000000000000008000,
|
|
,
|
|
#MEASURE 4/4
|
|
10102201,
|
|
#MEASURE 3/4
|
|
010101,
|
|
#MEASURE 4/4
|
|
10102201,
|
|
00111000,
|
|
10102201,
|
|
#MEASURE 3/4
|
|
010101,
|
|
#MEASURE 4/4
|
|
10102202,
|
|
00111000,
|
|
#MEASURE 7/8
|
|
#SCROLL 1.23
|
|
#BPMCHANGE 106
|
|
4,
|
|
,
|
|
1000010,
|
|
1000010,
|
|
1000010,
|
|
1001111,
|
|
|
|
#GOGOSTART
|
|
#SCROLL 1.03
|
|
#BPMCHANGE 126
|
|
40000010010100,
|
|
30000010010100,
|
|
40000010010100,
|
|
40000010020200,
|
|
30000010010100,
|
|
30000010020200,
|
|
30000010010100,
|
|
40000010040404,
|
|
|
|
#GOGOEND
|
|
#MEASURE 9/8
|
|
,
|
|
#MEASURE 2/4
|
|
7008,
|
|
|
|
#GOGOSTART
|
|
#MEASURE 4/4
|
|
11102220,
|
|
11102220,
|
|
11102220,
|
|
10112000,
|
|
11102220,
|
|
11102220,
|
|
11102220,
|
|
10112000,
|
|
#MEASURE 5/8
|
|
1000100100,
|
|
2,
|
|
1000100100,
|
|
500000000000000000000000000000000008000000000000000000000000,
|
|
#MEASURE 3/4
|
|
101200,
|
|
101200,
|
|
300300400400,
|
|
|
|
#GOGOEND
|
|
#MEASURE 7/8
|
|
3000100,
|
|
#MEASURE 3/4
|
|
101010,
|
|
#MEASURE 4/4
|
|
121212,
|
|
#MEASURE 7/8
|
|
50000000000000000000000000000000000000000000000000000000008,
|
|
#MEASURE 4/4
|
|
0300,
|
|
|
|
|
|
#END
|
|
|
|
|
|
COURSE:Easy
|
|
LEVEL:5
|
|
BALLOON:3
|
|
SCOREINIT:520
|
|
SCOREDIFF:163
|
|
|
|
|
|
#START
|
|
|
|
|
|
#MEASURE 3/4
|
|
#BPMCHANGE 130
|
|
100100,
|
|
111,
|
|
#BPMCHANGE 89.67
|
|
#SCROLL 1.45
|
|
#MEASURE 5/8
|
|
11111,
|
|
#SCROLL 1.03
|
|
#BPMCHANGE 126
|
|
3,
|
|
,
|
|
,
|
|
,
|
|
,
|
|
1,
|
|
,
|
|
1,
|
|
,
|
|
1,
|
|
0000020200,
|
|
1,
|
|
0001010100,
|
|
1,
|
|
0001010100,
|
|
1,
|
|
0000020200,
|
|
1,
|
|
0000010100,
|
|
1,
|
|
0001010100,
|
|
1,
|
|
0002020200,
|
|
500000000000000000000000000000000000000000000008000000000000,
|
|
500000000000000000000000000000000000000000000008000000000000,
|
|
#MEASURE 6/8
|
|
11,
|
|
#MEASURE 5/8
|
|
2000002000,
|
|
#MEASURE 6/8
|
|
11,
|
|
#MEASURE 5/8
|
|
2000002000,
|
|
#MEASURE 6/8
|
|
11,
|
|
#MEASURE 5/8
|
|
2000002000,
|
|
#MEASURE 6/8
|
|
11,
|
|
#MEASURE 8/8
|
|
20333000,
|
|
#MEASURE 5/8
|
|
1,
|
|
0000020200,
|
|
1,
|
|
0001010100,
|
|
1,
|
|
0001010100,
|
|
1,
|
|
0002020200,
|
|
1,
|
|
1000020200,
|
|
1,
|
|
0001010100,
|
|
1000020200,
|
|
0001010100,
|
|
1000020200,
|
|
500000000000000000000000000000000000000000000000000000008000,
|
|
,
|
|
#MEASURE 4/4
|
|
10001001,
|
|
#MEASURE 3/4
|
|
010100,
|
|
#MEASURE 4/4
|
|
10001001,
|
|
00101000,
|
|
10001001,
|
|
#MEASURE 3/4
|
|
010100,
|
|
#MEASURE 4/4
|
|
10001001,
|
|
00101000,
|
|
#MEASURE 7/8
|
|
#SCROLL 1.23
|
|
#BPMCHANGE 106
|
|
4,
|
|
,
|
|
1000010,
|
|
1000010,
|
|
1000010,
|
|
1001000,
|
|
|
|
#GOGOSTART
|
|
#SCROLL 1.03
|
|
#BPMCHANGE 126
|
|
30000010000100,
|
|
30000010000100,
|
|
30000010000100,
|
|
30000010010100,
|
|
30000010000100,
|
|
30000010010100,
|
|
30000010000100,
|
|
40000010030303,
|
|
|
|
#GOGOEND
|
|
#MEASURE 9/8
|
|
,
|
|
#MEASURE 2/4
|
|
7008,
|
|
|
|
#GOGOSTART
|
|
#MEASURE 4/4
|
|
1122,
|
|
1122,
|
|
1212,
|
|
1120,
|
|
1122,
|
|
1122,
|
|
1212,
|
|
1120,
|
|
#MEASURE 5/8
|
|
1000100100,
|
|
,
|
|
2000200200,
|
|
500000000000000000000000000000000008000000000000000000000000,
|
|
#MEASURE 3/4
|
|
100200,
|
|
100200,
|
|
300300300300,
|
|
|
|
#GOGOEND
|
|
#MEASURE 7/8
|
|
3000100,
|
|
#MEASURE 3/4
|
|
101010,
|
|
#MEASURE 4/4
|
|
111111,
|
|
#MEASURE 7/8
|
|
50000000000000000000000000000000000000000000000000000000008,
|
|
#MEASURE 4/4
|
|
0300,
|
|
|
|
|
|
#END
|
|
|