Files
2023-06-15 19:00:23 -05:00

439 lines
5.3 KiB
Plaintext

//TJADB Project
TITLE:Jigoku no Daiou
TITLEJA:地獄の大王
SUBTITLE:--Yoshihito Yano feat. Tenouru Daiou
BPM:75
WAVE:Jigoku no Daiou.ogg
OFFSET:-3.303
DEMOSTART:99.304
COURSE:Oni
LEVEL:9
BALLOON:30,16
SCOREINIT:360
SCOREDIFF:90
#START
7000000000000008,
#GOGOSTART
#BPMCHANGE 150
301211101211,
101211101212,
101211101211,
101211211203,
001211101211,
101211101212,
101211101211,
101211121211,
#GOGOEND
200220200200,
202220200200,
100220200200,
102220200200,
300200300200,
121200121202,
121210121211,
400221221212,
121211200200,
100010001110100030003000,
#GOGOSTART
301211101211,
101211101212,
100010201010100010222020,
101211211203,
001211101211,
101211101212,
100010201010100010222020,
100010201010101100211010,
101211101203,
101211111204,
111211111203,
121212121204,
101211101203,
101211111204,
111200121201,
300400300400,
#GOGOEND
1122102211203022,
1040112030221040,
1122104011221040,
1120302210401120,
3022104011221022,
1011121211221122,
1212112211221212,
0022112211221111,
0040112030221040,
0040112210221122,
0040104010401040,
1120700000000008,
1120302210401040,
100100200000600000000000000000000000000000000008,
0040112030001212,
1212112211221040,
001010101010,
000030003000300030003011,
100020002000200020110000,
000040004000400040022100,
101211202121,
001211211210,
200000100100,
000100110110,
300010201110100010201010,
101211101212,
100010201010100010222020,
101211211203,
000010201110100010201010,
101211101212,
100010201010100010222020,
100010201010112010103000,
#GOGOSTART
100010201011101010201030,
100010201110101011200040,
111010201011101010201030,
102010201110201110200010,
100010201011101010201030,
100010201110101011200040,
111010201010112010201010,
300400300400,
221221221221,
#GOGOEND
301201210121,
001221221211,
121001210400,
120200120200,
101111202010201010200030,
#END
COURSE:Hard
LEVEL:7
BALLOON:20,20,10,10,12,14,22
SCOREINIT:550
SCOREDIFF:133
#START
70000008,
#BPMCHANGE 150
#GOGOSTART
300111100111,
100201100201,
100111100111,
100000000000500000000000000800000000000000003000,
000111100111,
100201100201,
100111100111,
100100111100,
#GOGOEND
200220200200,
200220200000,
100220200200,
100220200000,
3232,
111100222200,
111100222200,
9,
,
8,
#GOGOSTART
300111200111,
100201100201,
100111200111,
100000000000500000000000000800000000000000003000,
000111200111,
100201100201,
100111200111,
200100111200,
301111200303,
000404000306,
000000000000000000000008000000000000100000001000,
021202120105,
000000000000000000000008000000000000100000001000,
022202220105,
000000000008000000000000100010001000100000000000,
3434,
#GOGOEND
3,
0011101010220110,
0010102200100220,
0011101010220110,
1110200000000000,
0011102011201122,
0011102011201122,
0022102011102220,
0040111030111040,
0040000011101110,
04040404,
00700008,
00300404,
000000000000600000000000000000000000000008000000,
0030000030001110,
200200200000100100100000500000000000000008000000,
011111,
033333,
022222,
044444,
100200101010,
100200101010,
2,
,
300111200111,
100201100201,
100111200111,
100000000000500000000000000800000000000000003000,
000111200111,
100201100201,
100111200111,
200100111200,
#GOGOSTART
301111200303,
000404000307,
000000800101,
021202120107,
000000800303,
000404000307,
08,
1122,
3344,
#GOGOEND
3,
111200111200,
112001120900,
0009,
800000000303,
#END
COURSE:Normal
LEVEL:6
BALLOON:18,18,8,8,10,12,20
SCOREINIT:690
SCOREDIFF:185
#START
70000008,
#BPMCHANGE 150
#GOGOSTART
300111000100,
1212,
100111000100,
100000000000500000000000000800000000000000003000,
000111000100,
1212,
1101,
000100111100,
#GOGOEND
12,
2022,
12,
1022,
33,
2022,
2022,
9,
,
8,
#GOGOSTART
300111000100,
1212,
100111000100,
100000000000500000000000000800000000000000003000,
000111000100,
1212,
1101,
000100111100,
300000000303,
000404000306,
000000000000000000000008000000000000100000001000,
000202000105,
000000000000000000000008000000000000100000001000,
000202000105,
000000000000000000000008000000000000000000000000,
3434,
#GOGOEND
3001,
01001001,
00010001,
00100100,
10010000,
01110110,
01110110,
01110110,
03003003,
03000000,
03030303,
00700008,
00300303,
000000000000600000000000000000008000000000000000,
03003000,
,
011100,
033300,
022200,
044400,
100110,
100110,
1,
,
300111000100,
1212,
100111000100,
100000000000500000000000000800000000000000003000,
000111000100,
1212,
1101,
000100111100,
#GOGOSTART
300111000303,
000404000307,
000000080101,
000202000107,
000000080303,
000404000307,
000000080000,
1122,
3344,//76
#GOGOEND
3,
1012,
101001110900,
,
800000000303,
#END
COURSE:Easy
LEVEL:4
BALLOON:16,16,6,6,8,10,16
SCOREINIT:500
SCOREDIFF:128
#START
70000008,
#BPMCHANGE 150
#GOGOSTART
3001,
1011,
1011,
100500080003,
0001,
1011,
1101,
0111,
#GOGOEND
12,
2022,
22,
2022,
33,
2022,
2022,
9,
,
8,
#GOGOSTART
3001,
1011,
1011,
100000000000500000000000000800000000000000003000,
0001,
1011,
1101,
0111,
3003,
3436,
000000000000000000000008000000000000100000000000,
1215,
000000000000000000000008000000000000100000000000,
1215,
000000000000000000000008000000000000000000000000,
3434,
#GOGOEND
3,
11100000,
11100000,
1100,
11100000,
11100000,
11100000,
11100000,
30003003,
03000000,
03030303,
00700008,
00300303,
000000000000600000000000000000000008000000000000,
03003000,
,
11,
33,
22,
44,
1211,
1211,
1,
,
3001,
1011,
1011,
100000000000500000000000000800000000000000003000,
0001,
1011,
1101,
0111,
3021,
10201017,
0081,
10201017,
0081,
10201017,
08,
1122,
3344,
#GOGOEND
1011,
1019,
,
800000000303,
#END