267 lines
9.4 KiB
Plaintext
267 lines
9.4 KiB
Plaintext
//TJADB Project
|
|
TITLE:Noshi Maite, Taiko Para!
|
|
TITLEJA:のし巻いて、太鼓っパラ!
|
|
SUBTITLE:--Masako Oogami feat. Miki Narahashi
|
|
BPM:129
|
|
WAVE:Noshi Maite, Taiko Para!.ogg
|
|
OFFSET:-2.224
|
|
DEMOSTART:38.045
|
|
|
|
COURSE:Oni
|
|
LEVEL:6
|
|
BALLOON:12,7
|
|
SCOREINIT:750
|
|
SCOREDIFF:190
|
|
|
|
|
|
#START
|
|
|
|
|
|
100000200200100000200000100000200200100000200000,
|
|
#MEASURE 2/4
|
|
200000000000100000000000,
|
|
#MEASURE 4/4
|
|
100000200000000000200000100000200000000000200000,
|
|
100000200000000000200000100000000100200000200000,
|
|
100000000000100100100000100000200000200200200000,
|
|
100000200000100100200000100000200200200000100000,
|
|
200000000200200000300000300000300000300000000000,
|
|
100100000200100000100000000000400000400000000000,
|
|
100000000000100100100000100000200000200200200000,
|
|
100000200000100100200000100000200200200000100000,
|
|
100000000100100000100000100000000000100000000000,
|
|
100000200200200000200200200000200200200000200000,
|
|
100000200000200000100000000000200200200000000000,
|
|
100000200000200000100000000000200200200000000000,
|
|
100000200000200000100000000000200200200000000000,
|
|
100000200000200000100000000000200200200000200000,
|
|
100000100100200000000000100100200000200000100100,
|
|
100000100100200000000000100100200000200000100100,
|
|
100000100100200000100000100100200000200000100000,
|
|
300000300000300000300000000000200200100000000000,
|
|
|
|
#GOGOSTART
|
|
000000000000300000000000100000100100100000100000,
|
|
000000100000100200000200200000100000100000100000,
|
|
100000100100100000100000000000100100100000100000,
|
|
100000100100100000100000000000400000400000400000,
|
|
000000000000300000000000100000100100100000100000,
|
|
000000100000100200000200200000100000100000100000,
|
|
100100100000100100200000100200200000200200200000,
|
|
100000000100100000200000100000300000000000000000,
|
|
000000000000300000000000100000100100100000100000,
|
|
000000100000100000100100100000100000100000100000,
|
|
100000100100100000100000000200200000100100100000,
|
|
100000100100100000200000000200200000200000000000,
|
|
100000000000200000000100200000200000100000100000,
|
|
000000000000100000000000100000100000100000700000,
|
|
000000000000000000000000000000800000000000000000,
|
|
|
|
#GOGOEND
|
|
100000100000200000100100000100000100200000100000,
|
|
100000100000200000100100000100000100200000100100,
|
|
100000100000200000100100000100000100100100100000,
|
|
100000100000200000100100000100000100200000100100,
|
|
100000100000200000100100000100000100200000100000,
|
|
100000100000200000100100000100000100200000100100,
|
|
100000100100100000100000100100000100100100100000,
|
|
100000000100200000100000200000000200100000200000,
|
|
100000000100100000100000700000000000000000800000,
|
|
000000100100200000200000100000000000300000000000,
|
|
|
|
|
|
#END
|
|
|
|
|
|
COURSE:Hard
|
|
LEVEL:5
|
|
BALLOON:8,8,8,5
|
|
SCOREINIT:820
|
|
SCOREDIFF:230
|
|
|
|
|
|
#START
|
|
|
|
|
|
100000200200200000000000100000200200200000000000,
|
|
#MEASURE 2/4
|
|
100000000000000000000000,
|
|
#MEASURE 4/4
|
|
100000200000000000200000100000200000000000200000,
|
|
100000200000000000200000100000000200200000200000,
|
|
100000000000200000000100100000100000200000000000,
|
|
100000000000100100100000100000200000200000000000,
|
|
300000000000000000300000300000300000300000000000,
|
|
100100000200100000100000000000400000400000000000,
|
|
100000000000200000000100100000100000200000000000,
|
|
100000000000100100100000100000200000200000000000,
|
|
100000000100100000100000100000000000100000000000,
|
|
600000000000000000000000000000000800000000000000,
|
|
100000000000200000100000000000100100100000000000,
|
|
100000000000200000100000000000200200200000000000,
|
|
100000000000200000100000000000100100100000000000,
|
|
100000000000200000100000000000200200200000000000,
|
|
100000100100100000000000200000200200200000000000,
|
|
100000100100100000000000200000200200200000000000,
|
|
100000100100100000100000200000200200200000200000,
|
|
300000300000300000300000000000200200200000000000,
|
|
#GOGOSTART
|
|
000000000000300000000000100000100100100000100000,
|
|
000000100100100000100000000000200200200000000000,
|
|
300000000000000000300000000000000000100000000000,
|
|
700000000000000000000000000000000000000800000000,
|
|
000000000000300000000000100000100100100000100000,
|
|
000000100100100000100000000000000000100000000000,
|
|
100000200000100000200000100000200000100000200000,
|
|
900000000000000000000000000000000000000000800000,
|
|
000000000000100000000000100000100100100000100000,
|
|
000000200200200000200000000000000000100000000000,
|
|
100000200000200000100000000000000000200000000000,
|
|
100000200000200000100000000000000000200000000000,
|
|
500000000000000000000000000000000800000000000000,
|
|
000000000000100000000000100000100000100000700000,
|
|
000000000000000000000000000800000000000000000000,
|
|
#GOGOEND
|
|
100000100000200000100000000000100000200000000000,
|
|
100000100000200000100000000000100000200000000000,
|
|
100000100000200000100000000000200200200000000000,
|
|
100000100000200000100000000000100000200000000000,
|
|
100000100000200000100000000000100000200000000000,
|
|
100000100000200000100000000000100000200000000000,
|
|
500000000000000000000000000000000800000000000000,
|
|
100000000100100000100000200000000200200000200000,
|
|
100000000100100000100000700000000000000800000000,
|
|
000000100100100000200000100000000000300000000000,
|
|
|
|
|
|
#END
|
|
|
|
|
|
COURSE:Normal
|
|
LEVEL:4
|
|
BALLOON:7,7,5,4
|
|
SCOREINIT:1080
|
|
SCOREDIFF:470
|
|
|
|
|
|
#START
|
|
|
|
|
|
100000000000000000000000100000000000000000000000,
|
|
#MEASURE 2/4
|
|
100000000000000000000000,
|
|
#MEASURE 4/4
|
|
100000100000000000000000200000200000000000000000,
|
|
100000100000000000000000200000000000000000000000,
|
|
100000000000200000000100100000000000100000000000,
|
|
100000000000000000000000100000000000000000000000,
|
|
100000000000100000000000300000000000000000000000,
|
|
000000000000000000000000000000200000200000000000,
|
|
100000000000200000000100100000000000100000000000,
|
|
100000000000000000000000100000000000000000000000,
|
|
100000000100100000000000100000000000100000000000,
|
|
600000000000000000800000000000000000000000000000,
|
|
100000000000200000100000000000000000200000000000,
|
|
100000000000200000100000000000000000000000000000,
|
|
100000000000200000100000000000000000200000000000,
|
|
100000000000200000100000000000000000000000000000,
|
|
100000000000000000000000200000000000000000000000,
|
|
100000000000100000000000100000000000000000000000,
|
|
100000000000000000000000200000000000000000000000,
|
|
300000300000300000300000000000000000000000000000,
|
|
#GOGOSTART
|
|
000000000000300000000000200000000000100000100000,
|
|
000000000000200000000000000000000000100000000000,
|
|
200000000000000000000000000000000000100000000000,
|
|
700000000000000000000000000000000000800000000000,
|
|
000000000000300000000000200000000000100000100000,
|
|
000000000000200000000000000000000000100000000000,
|
|
200000000000100000000000200000000000100000000000,
|
|
900000000000000000000000000000000000000000800000,
|
|
000000000000300000000000200000000000100000100000,
|
|
000000000000200000000000000000000000100000000000,
|
|
100000000000000000000000000000000000200000000000,
|
|
200000000000000000000000000000000000100000000000,
|
|
500000000000000000000000000000800000000000000000,
|
|
000000000000100000000000100000100000100000700000,
|
|
000000000000000000000000800000000000000000000000,
|
|
#GOGOEND
|
|
100000000000200000200000000000000000000000000000,
|
|
100000000000200000200000000000000000000000000000,
|
|
100000000000100000100000000000000000000000000000,
|
|
100000000000200000200000000000000000000000000000,
|
|
100000000000200000200000000000000000000000000000,
|
|
100000000000200000200000000000000000000000000000,
|
|
600000000000000000000000000000800000000000000000,
|
|
100000000100100000000000200000000200200000000000,
|
|
100000000100100000000000700000000000000800000000,
|
|
000000000000000000000000000000000000300000000000,
|
|
|
|
|
|
#END
|
|
|
|
|
|
COURSE:Easy
|
|
LEVEL:3
|
|
BALLOON:5,5,5,4
|
|
SCOREINIT:1040
|
|
SCOREDIFF:580
|
|
|
|
|
|
#START
|
|
|
|
|
|
100000000000000000000000100000000000000000000000,
|
|
#MEASURE 2/4
|
|
100000000000000000000000,
|
|
#MEASURE 4/4
|
|
100000000000000000000000200000000000000000000000,
|
|
100000000000000000000000200000000000000000000000,
|
|
100000000000000000000000100000000000100000000000,
|
|
100000000000000000000000200000000000000000000000,
|
|
100000000000100000000000300000000000000000000000,
|
|
000000000000000000000000000000000000000000000000,
|
|
100000000000000000000000100000000000100000000000,
|
|
100000000000000000000000200000000000000000000000,
|
|
100000000000100000000000100000000000000000000000,
|
|
300000000000000000000000000000000000000000000000,
|
|
000000000000200000000000000000000000200000000000,
|
|
000000000000200000000000000000000000100000000000,
|
|
000000000000200000000000000000000000200000000000,
|
|
000000000000200000000000000000000000100000000000,
|
|
100000000000000000000000200000000000000000000000,
|
|
100000000000100000000000000000000000000000000000,
|
|
100000000000000000000000200000000000000000000000,
|
|
300000000000300000000000000000000000000000000000,
|
|
#GOGOSTART
|
|
000000000000100000000000000000000000100000100000,
|
|
000000000000100000000000000000000000100000000000,
|
|
100000000000000000000000000000000000100000000000,
|
|
700000000000000000000000000000000000800000000000,
|
|
000000000000100000000000000000000000100000100000,
|
|
000000000000100000000000000000000000100000000000,
|
|
200000000000100000000000200000000000100000000000,
|
|
900000000000000000000000000000000000800000000000,
|
|
000000000000100000000000000000000000100000100000,
|
|
000000000000100000000000000000000000100000000000,
|
|
100000000000000000000000000000000000200000000000,
|
|
200000000000000000000000000000000000100000000000,
|
|
500000000000000000000000800000000000000000000000,
|
|
000000000000100000000000000000000000000000700000,
|
|
000000000000000000000000800000000000000000000000,
|
|
#GOGOEND
|
|
100000000000200000000000000000000000000000000000,
|
|
100000000000200000000000000000000000000000000000,
|
|
100000000000000000100000000000000000000000000000,
|
|
100000000000200000000000000000000000000000000000,
|
|
100000000000200000000000000000000000000000000000,
|
|
100000000000200000000000000000000000000000000000,
|
|
600000000000000000000000800000000000000000000000,
|
|
100000000000000000000000200000000000000000000000,
|
|
100000000000000000000000700000000000000800000000,
|
|
000000000000000000000000000000000000300000000000,
|
|
|
|
|
|
#END
|
|
|