Files
2023-06-15 19:15:39 -05:00

302 lines
7.4 KiB
Plaintext

//TJADB Project
TITLE:Omochi de Mambo
TITLEJA:おもちでマンボ
SUBTITLE:--Kanako Kakino feat. Tomomitsu Kaneko
SUBTITLEJA:太鼓の達人オリジナル曲
BPM:124
WAVE:Omochi de Mambo.ogg
OFFSET:-2.041
DEMOSTART:87.613
COURSE:Oni
LEVEL:3
#START
#MEASURE 5/8
1002002000,
1002002000,
1002002000,
3,
#MEASURE 4/4
100000100000200000000000000000000100000100100000,
200000200000200000000000000000000000000000000000,
100000100000200000000000000000000100000100100000,
100000000100000000100000000000000000000000000000,
100000100000200000000000000000000100000100100000,
200000200000200000000000000000000000000000000000,
100000100000200000000000000000000100000100100000,
100000000100000000300000000000000000000000000000,
100000000000100000000000100100000100100000000000,
100000000000100000000000100100000100100000000000,
100000000000100000000000100100000100100000200000,
500000000000008000000000100000000100000000000000,
100000000000100000000000100100000100100000200000,
100000000000100000000000300000000000000000000000,
100000000000100000000000100100000200000200000100,
000000000000000000000000000000000000000000000000,
#MEASURE 5/8
11100,
11100,
11100,
1,
11200,
11200,
11200,
1,
11210,
11210,
11210,
11210,
1,
3,
3,
2,
#MEASURE 4/4
100000100000200000000000000000000200000200100000,
100000100000200000000000000000000000000000000000,
100000100000200000000000000000000200000200100000,
100000000100000000100000000000000000000000000000,
100000100000200000000000000000000200000200100000,
100000100000200000000000000000000000000000000000,
100000100000200000000000000000000200000200100000,
100000000100000000300000000000000000000000000000,
100000000000100000000000100100000200100000000000,
100000000000100000000000100100000200100000000000,
100000000000100000000000100100000200100000000000,
500000000008000000100100100000000100000000000000,
100000000000100000000000100100000200100000000000,
100000000000100000000000300000000000000000000000,
100000000000100000000000100100000200000200000100,
000000000000000000000000000000000000000000000000,
#MEASURE 5/8
11100,
11100,
11100,
1,
11220,
11220,
11220,
10011,
12211,
12211,
12211,
12211,
1,
3,
3,
2,
#MEASURE 4/4
100000000100100100000100000000000100000100100000,
200000200000200000000000000000000000000000000000,
100000000100100100000100000000000100000100100000,
100000000100000000100000000000000000400000000000,
100000000100100100000100000000000100000100100000,
200000200000200000000000000000000000000000000000,
100000000100100100000100000000000100000100100000,
100000000100000000100000000000000000200000100000,
100000000100000000100000000000000000200000100000,
100000000100000000300000000000000000200000000000,
#END
COURSE:Hard
LEVEL:4
SCOREINIT:710
SCOREDIFF:170
#START
#MEASURE 5/8
1002002000,
1002002000,
1002002000,
3,
#MEASURE 4/4
100000100000200000000000000000000100000100100000,
200000200000200000000000000000000000000000000000,
100000100000200000000000000000000100000100100000,
100000000100000000100000000000000000000000000000,
100000100000200000000000000000000100000100100000,
200000200000200000000000000000000000000000000000,
100000100000200000000000000000000100000100100000,
100000000100000000300000000000000000000000000000,
100000000000100000000000100100000100100000000000,
100000000000100000000000100100000100100000000000,
100000000000100000000000100100000100100000200000,
500000000000008000000000100000000100000000000000,
100000000000100000000000100100000100100000200000,
100000000000100000000000300000000000000000000000,
100000000000100000000000100100000200000200000100,
000000000000000000000000000000000000000000000000,
#MEASURE 5/8
11100,
11100,
11100,
1,
11200,
11200,
11200,
1,
11210,
11210,
11210,
11210,
1,
3,
3,
2,
#MEASURE 4/4
100000100000200000000000000000000200000200100000,
100000100000200000000000000000000000000000000000,
100000100000200000000000000000000200000200100000,
100000000100000000100000000000000000000000000000,
100000100000200000000000000000000200000200100000,
100000100000200000000000000000000000000000000000,
100000100000200000000000000000000200000200100000,
100000000100000000300000000000000000000000000000,
100000000000100000000000100100000200100000000000,
100000000000100000000000100100000200100000000000,
100000000000100000000000100100000200100000000000,
500000000008000000100100100000000100000000000000,
100000000000100000000000100100000200100000000000,
100000000000100000000000300000000000000000000000,
100000000000100000000000100100000200000200000100,
000000000000000000000000000000000000000000000000,
#MEASURE 5/8
11100,
11100,
11100,
1,
11220,
11220,
11220,
10011,
12211,
12211,
12211,
12211,
1,
3,
3,
2,
#MEASURE 4/4
100000000100100100000100000000000100000100100000,
200000200000200000000000000000000000000000000000,
100000000100100100000100000000000100000100100000,
100000000100000000100000000000000000400000000000,
100000000100100100000100000000000100000100100000,
200000200000200000000000000000000000000000000000,
100000000100100100000100000000000100000100100000,
100000000100000000100000000000000000200000100000,
100000000100000000100000000000000000200000100000,
100000000100000000300000000000000000200000000000,
#END
COURSE:Normal
LEVEL:3
SCOREINIT:840
SCOREDIFF:220
#START
#MEASURE 5/8
1,
1,
1,
3,
#MEASURE 4/4
100000100000100000000000000000000000000000000000,
200000200000200000000000000000000000000000000000,
100000100000100000000000000000000000000000000000,
100000000100000000100000000000000000000000000000,
100000100000100000000000000000000000000000000000,
200000200000200000000000000000000000000000000000,
100000100000100000000000000000000000000000000000,
100000000100000000300000000000000000000000000000,
100000000000100000000000100000000100000000000000,
100000000000100000000000100000000100000000000000,
100000000000100000000000100000000100000000000000,
100000000000100000000000100000000100000000000000,
100000000000100000000000100000000100000000000000,
100000000000100000000000300000000000000000000000,
100000000000100000000000100000000000000000000300,
000000000000000000000000000000000000100000000000,
#MEASURE 5/8
10010,
10010,
10010,
10010,
20010,
20010,
20010,
20010,
10010,
20010,
10010,
20010,
1,
1,
3,
2,
#MEASURE 4/4
100000100000100000000000000000000000200000000000,
100000100000100000000000000000000000000000000000,
100000100000100000000000000000000000200000000000,
100000000100000000100000000000000000000000000000,
100000100000100000000000000000000000200000000000,
100000100000100000000000000000000000000000000000,
100000100000100000000000000000000000200000000000,
100000000100000000300000000000000000000000000000,
100000000000100000000000100100000100000000000000,
100000000000100000000000100100000100000000000000,
100000000000100000000000100100000100000000000000,
100000000000100000000000100000000000000000000000,
100000000000100000000000100100000100000000000000,
100000000000100000000000300000000000000000000000,
100000000000100000000000100000000000000000000300,
000000000000000000000000000000000000100000100000,
#MEASURE 5/8
10011,
10011,
10011,
10011,
10022,
20011,
10022,
20011,
10022,
20011,
10022,
20011,
1,
1,
3,
2,
#MEASURE 4/4
100000100000100000000000000000000000100000000000,
200000200000200000000000000000000000000000000000,
100000100000100000000000000000000000200000000000,
100000000100000000100000000000000000000000000000,
100000100000100000000000000000000000100000000000,
200000200000200000000000000000000000000000000000,
100000100000100000000000000000000000200000000000,
100000000100000000100000000000000000000000000000,
100000000100000000100000000000000000000000000000,
100000000100000000300000000000000000200000000000,
#END