Files
ESE/04 Children and Folk/Pirameki Taisou Taiko de Metabo Yattsukero! no Maki/Pirameki Taisou Taiko de Metabo Yattsukero! no Maki -New Audio-.tja
T

369 lines
11 KiB
Plaintext

//TJADB Project
TITLE:Pirameki Taisou Taiko de Metabo Yattsukero! no Maki -New Audio-
TITLEJA:ピラメキたいそう 太鼓でメタボやっつけろ!の巻
SUBTITLE:--Hannya Fruit Punch/PIRAMEKINO
BPM:120
WAVE:Pirameki Taisou Taiko de Metabo Yattsukero! no Maki -New Audio-.ogg
OFFSET:-2.029
DEMOSTART:61.331
COURSE:Oni
LEVEL:8
SCOREINIT:840
SCOREDIFF:210
#START
000000000000000000000000000000000000000000000000,
000000000000000000000000000000000000000000000000,
300000300000300000300000300000000000000000000000,
100100100000200000000000100100100000200000000000,
100100100000200000200200100000400000000000000000,
100100100000200000000000100100100000200000000000,
100100100000200000200200100000400000000000000000,
100100200200100000200000100100200000100000000000,
100100200200100000200000100100200000100000000000,
100200000200100100200000100100200000100000000000,
100200000200100100200000100100200000200000000000,
200200000000200200000000200200000000200200000000,
200200100000200000100100200000200000000000000000,
000000200000200000000000000000000000000000000000,
000000200000000200000000200000200000200200000000,
200200000000200200000000200200000000200200000000,
200200100000200000100100200000200000000000000000,
000000200000200000000000000000000000000000000000,
000000200000000200000000200000200000200200000000,
200200100100200200100100200200100100200200100100,
#BPMCHANGE 119
000000300000000300000000300000000000000000000000,
#BPMCHANGE 120
100100000100100000200000100100000100100000200000,
100000100100200200000200200000100000000000000000,
100100100200100000200000100100100200100000200200,
100000100100200100100100200100100100200000200000,
100100200200100000200000100100200200100000200000,
100200100200100200100200100200100000200000000000,
100100200200100000200000100100200200100000200200,
100000300000300000300000300000000000300000000000,
#BPMCHANGE 122.06
000000000000000000000000000000000000000000000000,
000000000000000000000000000000000000000000000000,
000000000000000000000000000000000000000000000000,
000000000000000000000000000000000000000000000000,
#GOGOSTART
000000000000500000000000000000000000000000000000,
000000000000000000000000000000000000000000000000,
000000000000000000000000000000000000000000000000,
000000000000000000000000000000000000000000000000,
000000000000000000000000000000000000000000000008,
000000000000000000000000000000000000000000000000,
000000000000000000000000000000000000000000000000,
#GOGOEND
#BPMCHANGE 120
#SECTION
#BRANCHSTART r,9999,115
#N
2211221122112211,
0030030030000000,
1221102012211020,
1022102011101000,
1211102012111022,
1011211121112000,
1101102011011020,
1201212121202000,
1101102011011022,
13333030,
1110200011102000,
1110202210300300,
3000001100000000,
#E
,
,
,
,
,
,
,
,
,
,
,
,
,
#M
2221222122212221,
0030030040000000,
1221102012211020,
1122112211102000,
1211102012111022,
1211211211212000,
1101102011011020,
1221212121222000,
1101102011011022,
13333040,
1110201011102010,
1110202210300300,
3000001100000000,
#END
COURSE:Hard
LEVEL:5
SCOREINIT:900
SCOREDIFF:220
#START
000000000000000000000000000000000000000000000000,
000000000000000000000000000000000000000000000000,
300000300000300000300000300000000000000000000000,
100000100000100000000000100000100000100000000000,
100000100000100000000000300000300000000000000000,
200000200000200000000000200000200000200000000000,
200000200000200000000000400000400000000000000000,
100000100000100000000000100000100000100000000000,
100000100000100000000000100000100000100000000000,
100100000100100000000000100000100000100000000000,
100100000100100000000000100000100000100000000000,
200000000000200000000000200000000000200000000000,
200000000000000000000000000000000000000000000000,
000000200000200000000000000000000000000000000000,
200000000000200000000000200000000000000000000000,
200000000000200000000000200000000000200000000000,
200000000000000000000000000000000000000000000000,
000000200000200000000000000000000000000000000000,
200000000000200000000000200000000000000000000000,
100000100000100000100000100000100000100000100000,
#BPMCHANGE 119
000000300000000300000000300000000000000000000000,
#BPMCHANGE 120
100100000100100000000000100100000100100000000000,
100000100000100000000000100000000000000000000000,
100100000100100000000000100100000100100000000000,
100000100000100000000000100000100000100000000000,
200200000200200000000000200200000200200000000000,
100000100000100000100000100000200000200000000000,
100000100000100000000000100000100000100000000000,
300000300000300000300000300000000000400000000000,
#BPMCHANGE 122.06
000000000000000000000000000000000000000000000000,
000000000000000000000000000000000000000000000000,
000000000000000000000000000000000000000000000000,
000000000000000000000000000000000000000000000000,
#GOGOSTART
000000000000500000000000000000000000000000000000,
000000000000000000000000000000000000000000000000,
000000000000000000000000000000000000000000000000,
000000000000000000000000000000000000000000000000,
000000000000000000000000000000000000000000000008,
000000000000000000000000000000000000000000000000,
000000000000000000000000000000000000000000000000,
#GOGOEND
#BPMCHANGE 120
#SECTION
#BRANCHSTART r,0,100
#N
11111111,
0030030030000000,
1110100011101000,
11111220,
1110100011101000,
1110100011101000,
1101102011011020,
1101100011101000,
1101102011011020,
33333040,
1110100011101000,
1110101110300300,
3000001100000000,
#E
,
,
,
,
,
,
,
,
,
,
,
,
,
#M
1110111011101110,
0030030040000000,
1110100011101000,
1110111011101000,
2220200022202000,
1110111011102000,
1101102011011020,
1101111011102000
1101102011011020,
33333040,
1110200011102000,
1110201110300300,
4000001100000000,
#END
COURSE:Normal
LEVEL:4
SCOREINIT:1170
SCOREDIFF:380
#START
000000000000000000000000000000000000000000000000,
000000000000000000000000000000000000000000000000,
300000300000300000000000300000000000000000000000,
100000000000100000000000100000000000100000000000,
100000000000000000000000300000000000000000000000,
100000000000100000000000100000000000100000000000,
100000000000000000000000300000000000000000000000,
100000000000100000000000100000000000100000000000,
100000000000100000000000100000000000000000000000,
100000000000100000000000100000000000100000000000,
100000000000100000000000100000100000100000000000,
200000000000200000000000200000000000000000000000,
200000000000000000000000200000000000000000000000,
200000000000000000000000000000000000000000000000,
200000000000200000000000200000000000000000000000,
200000000000200000000000200000000000000000000000,
200000000000000000000000200000000000000000000000,
200000000000000000000000000000000000000000000000,
200000000000200000000000200000000000000000000000,
100000000000100000000000100000000000100000000000,
#BPMCHANGE 119
000000300000000300000000300000000000000000000000,
#BPMCHANGE 120
100000000000000000000000100000000000000000000000,
100000000000100000000000100000000000000000000000,
100000000000000000000000100000000000000000000000,
100000000000100000000000100000000000000000000000,
100000000000000000000000100000000000000000000000,
100000100000100000000000100000100000100000000000,
100000000000000000000000100000000000000000000000,
300000300000300000000000300000000000000000000000,
#BPMCHANGE 122.06
000000000000000000000000000000000000000000000000,
000000000000000000000000000000000000000000000000,
000000000000000000000000000000000000000000000000,
000000000000000000000000000000000000000000000000,
#GOGOSTART
000000000000500000000000000000000000000000000000,
000000000000000000000000000000000000000000000000,
000000000000000000000000000000000000000000000000,
000000000000000000000000000000000000000000000000,
000000000000000000000000000000000000000000000800,
000000000000000000000000000000000000000000000000,
000000000000000000000000000000000000000000000000,
#GOGOEND
#BPMCHANGE 120
100000000000100000000000100000000000100000000000,
000000300000000300000000300000000000000000000000,
100000000000000000000000100000000000000000000000,
100000100000100000000000100000100000100000000000,
100000000000000000000000100000000000000000000000,
100000100000100000000000100000100000100000000000,
200000000000000000000000200000000000000000000000,
200000200000200000000000200000200000200000000000,
100000000000100000000000100000000000100000000000,
300000300000300000000000300000000000000000000000,
100000000000100000000000100000000000100000000000,
100000000000100000000000100000000000000000000000,
300000000000000000100100000000000000000000000000,
#END
COURSE:Easy
LEVEL:3
SCOREINIT:1090
SCOREDIFF:460
#START
000000000000000000000000000000000000000000000000,
000000000000000000000000000000000000000000000000,
300000000000300000000000300000000000000000000000,
100000000000000000000000100000000000000000000000,
100000000000000000000000300000000000000000000000,
100000000000000000000000100000000000000000000000,
100000000000000000000000300000000000000000000000,
100000000000100000000000100000000000000000000000,
100000000000100000000000100000000000000000000000,
100000000000100000000000100000000000000000000000,
100000000000100000000000100000000000000000000000,
200000000000000000000000200000000000000000000000,
200000000000000000000000000000000000000000000000,
200000000000000000000000000000000000000000000000,
200000000000000000000000000000000000000000000000,
200000000000000000000000200000000000000000000000,
200000000000000000000000000000000000000000000000,
200000000000000000000000000000000000000000000000,
200000000000000000000000000000000000000000000000,
100000000000100000000000100000000000100000000000,
#BPMCHANGE 119
100000000000000000000000300000000000000000000000,
#BPMCHANGE 120
100000000000000000000000100000000000000000000000,
100000000000100000000000100000000000000000000000,
100000000000000000000000100000000000000000000000,
100000000000100000000000100000000000000000000000,
100000000000000000000000100000000000000000000000,
100000000000100000000000100000000000000000000000,
100000000000000000000000100000000000000000000000,
300000000000300000000000300000000000000000000000,
#BPMCHANGE 122.06
000000000000000000000000000000000000000000000000,
000000000000000000000000000000000000000000000000,
000000000000000000000000000000000000000000000000,
000000000000000000000000000000000000000000000000,
#GOGOSTART
000000000000000000000000500000000000000000000000,
000000000000000000000000000000000000000000000000,
000000000000000000000000000000000000000000000000,
000000000000000000000000000000000000000000000000,
000000000000000000000000000000000000000000000800,
000000000000000000000000000000000000000000000000,
000000000000000000000000000000000000000000000000,
#GOGOEND
#BPMCHANGE 120
100000000000000000000000100000000000000000000000,
300000000000000000000000300000000000000000000000,
100000000000000000000000100000000000000000000000,
100000000000100000000000100000000000000000000000,
100000000000000000000000100000000000000000000000,
100000000000100000000000100000000000000000000000,
200000000000000000000000200000000000000000000000,
200000000000200000000000200000000000000000000000,
100000000000000000000000100000000000000000000000,
300000000000300000000000300000000000000000000000,
100000000000000000000000100000000000000000000000,
100000000000000000000000100000000000000000000000,
300000000000000000000000000000000000000000000000,
#END