Files
ESE/01 Pop/EZ DO DANCE/EZ DO DANCE.tja
T
2023-06-15 19:00:23 -05:00

308 lines
4.5 KiB
Plaintext

//TJADB Project
TITLE:EZ DO DANCE
TITLEJA:EZ DO DANCE
SUBTITLE:--Tetsuya Komuro feat. TRF
BPM:140
WAVE:EZ DO DANCE.ogg
OFFSET:-1.941
DEMOSTART:89.360
COURSE:Oni
LEVEL:8
BALLOON:8
SCOREINIT:530
SCOREDIFF:140
#START
,
,
,
1001101001101011,
2002202002101011,
1001101001101011,
7000000000000800,
1011221012110222,
1012201210201022,
1001101001101011,
2002202002101011,
1011221012110022,
1011222012101022,
1001101001101010,
1122112212221222,
1022101101101020,
1011202201101020,
1110201110201120,
1001001010000000,
1011101101101020,
1011202201101020,
1110201110201120,
1001002020000000,
1011101101101020,
1011201101101020,
1110201110201220,
1001001010000000,
1011101101101020,
1011201101101020,
1110201110201220,
1001002020000000,
1011012211102022,
1022012211102022,
1011201011102022,
1022221220102000,
1011012010111020,
2022022011102022,
1011011010221000,
1022122210221000,
1001001001002210,
1001001001002210,
1122112212221222,
1122112212221222,
#GOGOSTART
1011221011120022,
1101201101202022,
1011221010112011,
1020122010201222,
1011221011120022,
1101201101202022,
1011221010112011,
1020122010201222,
1101101010004000,
1101101010004000,
1101201011012011,
1020112210201122,
1101101010004000,
1101101010004000,
1101201011012010,
000000300000600000000000000000000000000000008000,
#GOGOEND
#END
COURSE:Hard
LEVEL:6
BALLOON:8,8,10,8
SCOREINIT:900
SCOREDIFF:258
#START
,
,
,
1001001000101000,
2002002000202000,
1001001000101010,
7008,
0010100010110000,
10102220,
1001001000101000,
2002002000202000,
0010100010110000,
10102220,
1001001000101010,
7008,
1001101000101000,
1001101000202000,
1001101000101000,
500000000000000000000000000000000008000000000000,
1001101000101000,
1001101000202000,
1001101000101000,
500000000000000000000000000000000008000000000000,
1001101000101000,
1001101000202000,
1001101000101000,
500000000000000000000000000000000008000000000000,
1001101000101000,
1001101000202000,
1001101000101000,
500000000000000000000000000000000008000000000000,
1011011000002000,
1011011000002000,
1011011010002000,
1001001010000000,
1001002010010020,
1011011000000000,
1011011000201000,
4004003030000000,
1001001001002010,
1001001001002010,
9,
98,//43
#GOGOSTART
1001101110010000,
1101101000004000,
1001101020222020,
01100040,
1001101110001000,
1101101000004000,
1001101020222020,
01100000,
1001101010004000,
1001101010004000,
1001101010001000,
7008,
1001101010004000,
1001101010004000,
1001101010001010,
000000500000000000000000000000000000000000000008,//59
#GOGOEND
,
,
#END
COURSE:Normal
LEVEL:4
BALLOON:6,6,8,6
SCOREINIT:1010
SCOREDIFF:270
#START
,
,
,
1001001000000000,
2002002000000000,
1001001000000000,
7008,
1110,
1111,
,
1110,
2220,
2222,
,
7008,
1001001000000000,
1001001000000000,
1001001000001000,
500000000000000000000000000000000008000000000000,
2002002000000000,
2002002000000000,
2002002000002000,
500000000000000000000000000000000008000000000000,
1001001000000000,
1001001000000000,
1001001000001000,
500000000000000000000000000000000008000000000000,
2002002000000000,
2002002000000000,
2002002000002000,
500000000000000000000000000000000008000000000000,
10010020,
10010020,
1022,
500000000000000000000000000000000008000000000000,
33,
3,
11,
4433,
10010020,
10010020,
9,
98,//43
#GOGOSTART
1111,
1004,
0111,
500000000000000000000000000000000008000000000000,
1111,
1004,
0111,
500000000000000000000000000000000008000000000000,
3003003030000000,
3003003030000000,
2002002020002000,
7008,
3003003030000000,
3003003030000000,
2002002020002000,
500000000000000000000000000000000008000000000000,//59
#GOGOEND
,
,
#END
COURSE:Easy
LEVEL:3
BALLOON:4,4,6,4
SCOREINIT:900
SCOREDIFF:280
#START
,
,
,
11,
1,
11,
7008,
11,
1111,
,
1110,
11,
1111,
,
7008,
1001,
1001,
11,
500000000000000000000000000008000000000000000000,
2002,
2002,
22,
500000000000000000000000000008000000000000000000,
1001,
1001,
11,
500000000000000000000000000008000000000000000000,
2002,
2002,
22,
500000000000000000000000000008000000000000000000,
1002,
1002,
1022,
500000000000000000000000000008000000000000000000,
33,
3,
12,
33,
1002,
1002,
9,
98,//43
#GOGOSTART
1110,
1110,
11,
500000000000000000000000000008000000000000000000,
1110,
1110,
11,
500000000000000000000000000008000000000000000000,
30033000,
30033000,
2022,
7008,
30033000,
30033000,
2022,
500000000000000000000000000000000008000000000000,//59
#GOGOEND
,
,
#END