189 lines
2.6 KiB
Plaintext
189 lines
2.6 KiB
Plaintext
//TJADB Project
|
|
TITLE:Lemon
|
|
TITLEJA:Lemon
|
|
SUBTITLE:--Kenshi Yonezu
|
|
SUBTITLEJA:米津玄師
|
|
BPM:87
|
|
WAVE:Lemon.ogg
|
|
OFFSET:-2.816
|
|
DEMOSTART:60.057
|
|
|
|
COURSE:Oni
|
|
LEVEL:7
|
|
SCOREINIT:1350
|
|
SCOREDIFF:450
|
|
|
|
|
|
#START
|
|
|
|
|
|
22,
|
|
22,
|
|
22,
|
|
200000000000200000000202,
|
|
100202000200100202000200,
|
|
100202000200100000200202,
|
|
100000200202100200200200,
|
|
1002200210004000,
|
|
000000000000000000000101,
|
|
100101200100100101200100,
|
|
100101200100100000200101,
|
|
100000200101100000200101,
|
|
100000200101100000000101,
|
|
100101200100100101200100,
|
|
100101200100100000200101,
|
|
100000200101100100200100,
|
|
100010000000200000000010500000000008000000000000,
|
|
1002202210202000,
|
|
1002202210201000,
|
|
1002202210102020,
|
|
100000100200300000202202,//21
|
|
|
|
#GOGOSTART
|
|
101000102000101000102202,
|
|
101000102000101000102202,
|
|
101000202001101000202000,
|
|
102000102000300000102202,
|
|
101000102000101000102202,
|
|
100020000000100020000000500000000008000000100010,
|
|
100100200102100100201000,
|
|
100020000000100020000000500000000008000000200020,
|
|
100100200102100100201000,
|
|
300020000000300020000000600008000000400000000000,//31
|
|
|
|
#GOGOEND
|
|
|
|
|
|
#END
|
|
|
|
|
|
COURSE:Hard
|
|
LEVEL:5
|
|
BALLOON:10
|
|
SCOREINIT:1810
|
|
SCOREDIFF:540
|
|
|
|
#START
|
|
22,
|
|
22,
|
|
22,
|
|
22,
|
|
10011001,
|
|
10011000,
|
|
10111011,
|
|
500000000000000000000000000000000008000000000000,
|
|
,
|
|
10211021,
|
|
10211000,
|
|
10211021,
|
|
10212000,
|
|
10211021,
|
|
10211000,
|
|
10211020,
|
|
3330,
|
|
10201220,
|
|
10201220,
|
|
10201222,
|
|
7008,//21
|
|
|
|
#GOGOSTART
|
|
110110200200,
|
|
110110200200,
|
|
110110200200,
|
|
110110300000,
|
|
110110200200,
|
|
100010000000100010000000500000000008000000000000,
|
|
10211020,
|
|
300000000000300000000000600000000008000000000000,
|
|
10211020,
|
|
3334,//31
|
|
|
|
#GOGOEND
|
|
|
|
#END
|
|
|
|
COURSE:Normal
|
|
LEVEL:3
|
|
BALLOON:8
|
|
|
|
#START
|
|
11,
|
|
1,
|
|
11,
|
|
1,
|
|
12,
|
|
1,
|
|
12,
|
|
500000000000000000000000000000000008000000000000,
|
|
,
|
|
10011001,
|
|
10111000,
|
|
10111020,
|
|
3330,
|
|
10011001,
|
|
10111000,
|
|
10111020,
|
|
3330,
|
|
10201120,
|
|
10201120,
|
|
10201120,
|
|
7008,//21
|
|
|
|
#GOGOSTART
|
|
3340,
|
|
3340,
|
|
3344,
|
|
600000000000000000000000000008000000000000000000,
|
|
3344,
|
|
600000000000000000000000000000000008000000000000,
|
|
10112010,
|
|
300000000000300000000000600000000008000000000000,
|
|
10112010,
|
|
3334,//31
|
|
|
|
#GOGOEND
|
|
|
|
#END
|
|
|
|
COURSE:Easy
|
|
LEVEL:2
|
|
BALLOON:5
|
|
|
|
#START
|
|
11,
|
|
1,
|
|
11,
|
|
1,
|
|
11,
|
|
1,
|
|
11,
|
|
500000000000000000000000000000000008000000000000,
|
|
,
|
|
11,
|
|
1110,
|
|
11,
|
|
3330,
|
|
11,
|
|
1110,
|
|
11,
|
|
3330,
|
|
1202,
|
|
1202,
|
|
1202,
|
|
70000800,//21
|
|
|
|
#GOGOSTART
|
|
3330,
|
|
4440,
|
|
3333,
|
|
600000000000000000000000000008000000000000000000,
|
|
3330,
|
|
600000000000000000000000000008000000000000000000,
|
|
12,
|
|
3330,
|
|
12,
|
|
300000000000300000000000600000000008000000000000,//31
|
|
|
|
#GOGOEND
|
|
|
|
#END |