Files
ESE/01 Pop/Natsu Iro/Natsu Iro.tja
T
2023-09-16 17:39:30 -05:00

216 lines
7.7 KiB
Plaintext

//TJADB Project
TITLE:Natsu Iro
TITLEJA:夏色
SUBTITLE:--Yuzu
BPM:122
WAVE:Natsu Iro.ogg
OFFSET:-4.006
DEMOSTART:58.105
COURSE:Oni
LEVEL:7
#START
100000000100100000200000100100000100100000000000,
100000100100100000200000100100200000200000000000,
100000000100100000200000100100000100100000000000,
100000100100100000200000100100200000200000000000,
100000100100000100100000000000200000200200200000,
100000200100000200100000000000000000300000000000,
100000000100100000200200100100000100100000200000,
100100000100100000200200100100200000200000000000,
100000000100100000200200100100000100100000200000,
100100000100100000200200100100200000200000200200,
100000100000200000100100000100100000200000200200,
100000100000200000100100000100100000200000000000,
500000000000000000000000000000000008000000000000,
100100000100100000200200100100000100100000200200,
100100000100100000200200100100200000200000200200,
100100000100100000200200100100000100100000200000,
100100000100100000200200100100200000200000200200,
100000100000200000100100000100100000200200200000,
100000100000200000100100000100100000200000000000,
100000100000200000200000100000100000200000200000,
#MEASURE 2/4
100000100000200000200000,
#MEASURE 4/4
100000100000200000200000000000000000000000000000,
100000100100200000200000100000100100200000200000,
100000100100200000200000100000200000200000000000,
100100100000100100100000100100200000200000000000,
100100100100100000100100100000200200200000200000,
300000000000000000000000300000000000300000000000,
100000100000100000000000100000000000400000000000,
100000200000100000200100100000200200200000200000,
100100200000100000200100100000200000200000000000,
100000200000100000200100100000200200200000200000,
100100200000100000200100100000000000100000100000,
100100000000100000200200000000100000100100200000,
100000100100200000000000200000000000100000100100,
200000000000100000100100200000000100100000100000,
500000000000000000000000000000000000000000000000,
000000000008000000000000000000000000000000000000,
#END
COURSE:Hard
LEVEL:5
SCOREINIT:1110
SCOREDIFF:260
#START
100000000000100000000000100100000100100000000000,
100000000100100000100000000100100000100000000000,
100000000000100000000000100100000100100000000000,
100000000100100000100000000100100000100000000000,
100000100100000100100000000000000000400000000000,
100000100100000100100000000000000000300000000000,
100000000100100000100000100000000100100000100000,
100000000100100000100000100100100000100000000000,
100000000100100000100000100000000100100000100000,
100000000100100000100000100100100000100000000000,
100000000000100000100100000100100000100000000000,
100000000000100000100100000100100000100000000000,
500000000000000000000000000000000800000000000000,
100000000100100000100000100100000100100000100000,
100000000100100000100000100100100000100000000000,
100000000100100000100000100100000100100000100000,
100000000100100000100000100100100000100000000000,
100000000000200000100100000100100000200000000000,
100000000000200000100100000100100000200000000000,
100000100000200000000000100000100000200000000000,
#MEASURE 2/4
100000100000200000000000,
#MEASURE 4/4
100000100000200000000000000000000000000000000000,
100000100000200000200000100000100000200000200000,
100000100000200000200000100000100000200000000000,
100100100000100100100000100000100000200000000000,
100100100000100100100000100000100000200000000000,
300000000000000000000000300000000000300000000000,
100000100000100000000000100000000000400000000000,
100000100000200000000100100000100000200000000000,
100000100000200000000100100000100000200000000000,
100000100000200000000100100000100000200000000000,
100000100000200000000100100000000000100000100000,
100100000000200000200000000000100000100000000000,
100000100100000000000000000000000000100000100100,
000000000000100000100100000000000000300000000000,
500000000000000000000000000000000000000000000000,
000000000800000000000000000000000000000000000000,
#END
COURSE:Normal
LEVEL:3
SCOREINIT:1560
SCOREDIFF:570
#START
100000000000100000000000100000000000000000000000,
100000000100000000100000000000000000000000000000,
100000000000100000000000100000000000000000000000,
100000000100000000100000000000000000000000000000,
100000000100000000100000000000000000000000000000,
300000000300000000300000000000000000000000000000,
000000000000100000000000000000000000100000000000,
000000000000100000000000000200200000200000000000,
000000100000100000000000000000100000100000000000,
000000000000100000000000000200200000200000000000,
100000000000100000000000200000000000200000000000,
100000000000100000000000000000000000100000000000,
500000000000000000000000000000000800000000000000,
000000000000100000000000000000100000100000000000,
000000000000100000000000000200200000200000000000,
000000000000100000000000000000100000100000000000,
000000000000100000000000000200200000200000000000,
100000000000100100000100000000000000000000000000,
100000000000100000100100000000000000100000000000,
000000000000200000000000000000000000200000000000,
#MEASURE 2/4
000000000000200000000000,
#MEASURE 4/4
200000200000000000000000000000000000000000000000,
100000000000200000000000100000000000200000000000,
100000100000000000100000000000000000000000000000,
100000000000100000000000100000000000000000000000,
100000000000100000000000100000000000000000000000,
300000000000000000000000300000000000300000000000,
300000000000000000000000000000000000000000000000,
100000000000100000000000200000200000200000000000,
100000100100000000000000200000200000200000000000,
100000000000100000000000200000200000200000000000,
100000100100000000000000400000000000000000000000,
100000000000100000100100000000000000000000000000,
100000100100000000000000000000000000100000100100,
000000000000100000100100000000000000300000000000,
500000000000000000000000000000000000000000000800,
#END
COURSE:Easy
LEVEL:3
SCOREINIT:1660
SCOREDIFF:910
#START
100000000000100000000000100000000000000000000000,
300000000000000000000000000000000000000000000000,
100000000000100000000000100000000000000000000000,
300000000000000000000000000000000000000000000000,
100000000100000000100000000000000000000000000000,
300000000300000000300000000000000000000000000000,
000000000000100000000000000000000000100000000000,
000000000000100000000000000000200000200000000000,
000000000000100000000000000000000000100000000000,
000000000000100000000000000000200000200000000000,
100000000000000000000000200000000000200000000000,
100000000000100000000000000000000000100000000000,
500000000000000000000000000000000800000000000000,
000000000000100000000000000000000000100000000000,
000000000000100000000000000000200000200000000000,
000000000000100000000000000000000000100000000000,
000000000000100000000000000000200000200000000000,
100000000000100000000000100000000000000000000000,
100000000000100000000000100000000000100000000000,
000000000000200000000000000000000000200000000000,
#MEASURE 2/4
000000000000200000000000,
#MEASURE 4/4
000000000000200000000000000000000000000000000000,
000000000000200000000000000000000000200000000000,
000000000000200000000000000000000000200000000000,
100000000000100000000000100000000000000000000000,
100000000000100000000000100000000000000000000000,
100000000000000000000000100000000000100000000000,
100000000000000000000000300000000000000000000000,
000000000000100000000000000000000000100000000000,
100000000000000000000000300000000000000000000000,
000000000000100000000000000000000000100000000000,
100000000000000000000000300000000000000000000000,
100000000000100000100000000000000000000000000000,
100000000000000000000000000000000000100000000000,
000000000000100000000000000000000000300000000000,
500000000000000000000000000000000000000000000008,
#END