Files
ESE/01 Pop/ROCKET DIVE/ROCKET DIVE.tja
T
2023-06-15 19:05:10 -05:00

289 lines
2.6 KiB
Plaintext

//TJADB Project
TITLE:ROCKET DIVE
TITLEJA:ROCKET DIVE
SUBTITLE:--GReeeeN & Spread Beaver
BPM:182.99
WAVE:ROCKET DIVE.ogg
OFFSET:-2.998
DEMOSTART:60.479
COURSE:Oni
LEVEL:6
BALLOON:48
SCOREINIT:700
SCOREDIFF:190
#START
1111,
10101111,
1022201022201022,
2010220111111110,
7,
,
,
0008000000303030,
11211120,
11221200,
11211121,
11221200,
11211120,
11221200,
11211121,
11221200,
12210020,
12210120,
12210020,
1011101110101010,
11211121,
1010201000102011,
11211121,
1010201000102011,
1000202000102011,
1000202000102011,
1010202000102011,
1010202000101011,
11211121,
1010201000102011,
11211121,
1010201000102011,
1000202000102011,
1000202000102011,
1020201000102011,
1020201000101011,
11221122,
1010202110102000,
1010202110102010,
1010202110102000,
11221122,
1010202110102000,
10112020,
1020100011112000,
#GOGOSTART
1110202011102010,
33030121,
1110202011102010,
1110201011102000,
11221120,
11221240,
1010202000102011,
11220120,
1110202011102010,
33030121,
1110202011102010,
1110201011102000,
10220122,
10220344,
#GOGOEND
#END
COURSE:Hard
LEVEL:3
BALLOON:20
SCOREINIT:850
SCOREDIFF:280
#START
1111,
10111010,
1111,
10111010,
7,
0,
0,
0008000000303030,
11011010,
10101100,
11011010,
10101100,
11011010,
10101100,
11011010,
10101100,
10110000,
10110000,
30330000,
6008,
10101110,
10110220,
10101110,
1,
10220110,
10220110,
30330000,
30330000,
10101110,
10110220,
10101110,
1,
10220110,
10220110,
30330000,
30330000,
10111022,
01100000,
10111022,
01100000,
10111022,
01100000,
1212,
33,
#GOGOSTART
10220110,
33030000,
10220110,
1,
10111010,
10101130,
0,
0,
10220110,
33030000,
10220110,
10220000,
10110110,
10110333,
#END
COURSE:1
LEVEL:4
BALLOON:20,20
#START
7,
0,
0,
8,
7,
0,
0,
0008000000000000,
11,
1110,
11,
1110,
11,
1110,
11,
1110,
3,
3,
3,
6008,
1111,
1100,
1111,
1,
1200,
1200,
30030000,
30030000,
1111,
1100,
1111,
1,
1200,
1200,
30030000,
30030000,
10001011,
01100000,
10001011,
01100000,
10001011,
01100000,
11,
33,
#GOGOSTART
10110010,
30030000,
10110010,
1,
1111,
1113,
0,
0,
10110010,
30030000,
10110010,
1,
1101,
10100111,
#END
COURSE:0
LEVEL:3
BALLOON:20,20
#START
7,
0,
0,
8,
7,
0,
0,
0008000000000000,
1,
1110,
1,
1110,
1,
1110,
1,
1110,
3,
3,
3,
5008,
1100,
1100,
1,
1,
1100,
1100,
3,
3,
1100,
1100,
1,
1,
1100,
1100,
3,
3,
12,
1,
12,
1,
12,
1,
11,
50000800,
#GOGOSTART
11,
30030000,
11,
1,
11,
1033,
0,
0,
11,
3000030000000000,
11,
1,
11,
10000303,
#END