335 lines
13 KiB
Plaintext
335 lines
13 KiB
Plaintext
//TJADB Project
|
|
TITLE:Rising Sun
|
|
TITLEJA:Rising Sun
|
|
SUBTITLE:--EXILE
|
|
BPM:127
|
|
WAVE:Rising Sun.ogg
|
|
OFFSET:-2.146
|
|
DEMOSTART:84.675
|
|
|
|
COURSE:Oni
|
|
LEVEL:5
|
|
SCOREINIT:770
|
|
SCOREDIFF:220
|
|
|
|
|
|
#START
|
|
|
|
|
|
100000000000100000000000000000000000000000000000,
|
|
100000000000100000000000000000000000000000000000,
|
|
200000000000200000000000000000000000000000000000,
|
|
200000000000200000000000000000000000000000000000,
|
|
100000000000100000000000100000100000100000000000,
|
|
200000000000200000000000200000200000200000000000,
|
|
100000000000100000000000100000100000100000000000,
|
|
200000000000200000000000200000200000200000000000,
|
|
100000200000100000200000100000100000200000000000,
|
|
100000200000200000000000100000200000200000000000,
|
|
100000200000100000200000100000100000200000000000,
|
|
500000000000000000000000000008000000000000000000,
|
|
|
|
#GOGOSTART
|
|
300000000000000000000000300000000000000000600000,
|
|
000000000000000008000000000000100000200000200000,
|
|
100000100100200000100100100000100100200000100100,
|
|
100000100100200000000000000000000000000000000000,
|
|
300000000000000000000000300000000000000000600000,
|
|
000000000000000008000000000000100000200000200000,
|
|
100000100100200000100100100000100100200000100100,
|
|
100000100100200000000000000000300000000000000000,
|
|
100000200000100000200200100000200000100000000000,
|
|
100000200200100000200000100000200200200000100100,
|
|
100000200000100000200200100000200000100000000000,
|
|
100000200200100000200000100000100100200000000000,
|
|
600000000000000000000000000008000000000000000000,
|
|
300000000000000000000000300000000000000000600000,
|
|
000000000000000008000000000000200200100000200000,
|
|
000000200200100000200000000000200200100000200000,
|
|
|
|
#GOGOEND
|
|
000000100000200000000000100000100000200000000000,
|
|
100000100000200000100000100000200000000000200000,
|
|
000000100000200000000000100000100000200000000000,
|
|
100000100000200000100000200000200000000000200000,
|
|
000000100000200000000000100000100000200000000000,
|
|
100000100000200000100000100000200200200000200000,
|
|
100000000000200000000000100000100100200000200000,
|
|
100000200000000000200000000000200000000000200000,
|
|
000000100000200000000000100000100000200000000000,
|
|
100000100000200000100000100000200000000000200000,
|
|
000000100000200000000000100000100000200000000000,
|
|
100000100000200000100000200000200000000000200000,
|
|
000000100000200000000000100000100000200000000000,
|
|
100000100000200000100000100000200200200000200000,
|
|
100000000000200000000000100000100100200000200000,
|
|
500000000000000000000000000008000000000000000000,
|
|
|
|
#GOGOSTART
|
|
300000000000000000000000300000000000000000600000,
|
|
000000000000000008000000000000100000200000200000,
|
|
100000100100200000100100100000100100200000100100,
|
|
100000100100200000000000000000000000000000000000,
|
|
300000000000000000000000300000000000000000600000,
|
|
000000000000000008000000000000100000200000200000,
|
|
100000100100200000100100100000100100200000100100,
|
|
100000100100200000000000000000300000000000000000,
|
|
100000200000100000200200100000200000100000000000,
|
|
100000200200100000200000100000200200200000100100,
|
|
100000200000100000200200100000200000100000000000,
|
|
100000200200100000200000100000100100200000000000,
|
|
600000000000000000000000000008000000000000000000,
|
|
300000000000000000000000300000000000000000600000,
|
|
000000000000000008000000000000200200100000200000,
|
|
000000200200100000200000000000200200100200200000,
|
|
|
|
#GOGOEND
|
|
|
|
|
|
#END
|
|
|
|
|
|
COURSE:Hard
|
|
LEVEL:3
|
|
BALLOON:14
|
|
SCOREINIT:820
|
|
SCOREDIFF:250
|
|
|
|
|
|
#START
|
|
|
|
|
|
100000000000100000000000000000000000000000000000,
|
|
100000000000100000000000000000000000000000000000,
|
|
200000000000200000000000000000000000000000000000,
|
|
200000000000200000000000000000000000000000000000,
|
|
100000000000100000000000100000100000100000000000,
|
|
200000000000200000000000200000200000200000000000,
|
|
100000000000100000000000100000100000100000000000,
|
|
200000000000200000000000200000200000200000000000,
|
|
100000000000100000000000100000100000200000000000,
|
|
100000200000200000000000100000200000200000000000,
|
|
100000000000100000000000100000100000200000000000,
|
|
500000000000000000000000800000000000000000000000,
|
|
|
|
#GOGOSTART
|
|
300000000000000000000000300000000000000000600000,
|
|
000000000000800000000000000000100000200000100000,
|
|
000000100000200000100000000000100000200000100000,
|
|
000000100000000000000000000000000000000000000000,
|
|
300000000000000000000000300000000000000000600000,
|
|
000000000000800000000000000000100000200000100000,
|
|
000000100000200000100000000000100000200000100000,
|
|
000000100000000000000000000000300000000000000000,
|
|
100000100000200000000000100000100000200000000000,
|
|
100000100000200000000000100000100100100000000000,
|
|
100000100000200000000000100000100000200000000000,
|
|
100000100000200000000000100000200200200000000000,
|
|
600000000000000000000000000800000000000000000000,
|
|
300000000000000000000000300000000000000000600000,
|
|
000000000000000800000000000000000000000000000000,
|
|
000000000000000000000000000000000000000000000000,
|
|
|
|
#GOGOEND
|
|
100000000000200000000000100000100000200000000000,
|
|
100000000000200000100000100000200000000000200000,
|
|
100000000000200000000000100000100000200000000000,
|
|
100000000000200000100000100000200000000000200000,
|
|
100000000000200000000000100000100000200000000000,
|
|
100000000000200000100000000000100000200000000000,
|
|
100000000000200000000000100000100000200000000000,
|
|
100000000000000000000000000000000000000000000000,
|
|
100000000000200000000000100000100000200000000000,
|
|
100000000000200000100000100000200000000000200000,
|
|
100000000000200000000000100000100000200000000000,
|
|
100000000000200000100000100000200000000000200000,
|
|
100000000000200000000000100000100000200000000000,
|
|
100000000000200000100000000000100000200000000000,
|
|
100000000000200000000000100000100000200000000000,
|
|
500000000000000000000000800000000000000000000000,
|
|
|
|
#GOGOSTART
|
|
300000000000000000000000300000000000000000600000,
|
|
000000000000800000000000000000100000200000100000,
|
|
000000100000200000100000000000100000200000100000,
|
|
000000100000000000000000000000000000000000000000,
|
|
300000000000000000000000300000000000000000600000,
|
|
000000000000800000000000000000100000200000100000,
|
|
000000100000200000100000000000100000200000100000,
|
|
000000100000000000000000000000300000000000000000,
|
|
100000100000200000000000100000100000200000000000,
|
|
100000100000200000000000100000100100100000000000,
|
|
100000100000200000000000100000100000200000000000,
|
|
100000100000200000000000100000200200200000000000,
|
|
600000000000000000000000000800000000000000000000,
|
|
300000000000000000000000300000000000000000600000,
|
|
000000000000000800000000000000000000000000000000,
|
|
900000000000000000000000000000000000000000000008,
|
|
|
|
#GOGOEND
|
|
|
|
|
|
#END
|
|
|
|
|
|
COURSE:Normal
|
|
LEVEL:3
|
|
BALLOON:10
|
|
SCOREINIT:940
|
|
SCOREDIFF:380
|
|
|
|
|
|
#START
|
|
|
|
|
|
100000000000100000000000000000000000000000000000,
|
|
100000000000100000000000000000000000000000000000,
|
|
200000000000200000000000000000000000000000000000,
|
|
200000000000200000000000000000000000000000000000,
|
|
100000000000100000000000100000000000100000000000,
|
|
000000000000000000000000000000000000000000000000,
|
|
100000000000100000000000100000000000100000000000,
|
|
000000000000000000000000000000000000000000000000,
|
|
100000000000100000000000200000000000200000000000,
|
|
000000000000000000000000000000000000000000000000,
|
|
100000000000100000000000200000000000200000000000,
|
|
500000000000000000000000000800000000000000000000,
|
|
#GOGOSTART
|
|
300000000000000000000000300000000000000000000000,
|
|
300000000000000000000000000000000000000000000000,
|
|
100000100000100000000000100000100000100000000000,
|
|
100000000000000000000000000000000000000000000000,
|
|
300000000000000000000000300000000000000000000000,
|
|
300000000000000000000000000000000000000000000000,
|
|
100000100000100000000000100000100000100000000000,
|
|
100000000000000000000000000000000000000000000000,
|
|
100000000000200000000000100000000000200000000000,
|
|
100000000000000000000000100000000000000000000000,
|
|
100000000000200000000000100000000000200000000000,
|
|
100000000000000000000000100000000000000000000000,
|
|
600000000000000000000000000800000000000000000000,
|
|
300000000000000000000000300000000000000000000000,
|
|
300000000000000000000000000000000000000000000000,
|
|
000000000000000000000000000000000000000000000000,
|
|
#GOGOEND
|
|
100000000000000000000000100000000000000000000000,
|
|
100000000000100000100000100000000000100000000000,
|
|
100000000000000000000000100000000000000000000000,
|
|
200000000000200000200000200000000000200000000000,
|
|
100000000000000000000000100000000000000000000000,
|
|
100000000000100000100000100000000000100000000000,
|
|
100000000000000000000000100000000000100000000000,
|
|
100000000000000000000000000000000000000000000000,
|
|
100000000000000000000000100000000000000000000000,
|
|
100000000000100000100000100000000000100000000000,
|
|
100000000000000000000000100000000000000000000000,
|
|
200000000000200000200000200000000000200000000000,
|
|
100000000000000000000000100000000000000000000000,
|
|
100000000000100000100000100000000000100000000000,
|
|
100000000000000000000000100000000000100000000000,
|
|
500000000000000000000000000800000000000000000000,
|
|
#GOGOSTART
|
|
300000000000000000000000300000000000000000000000,
|
|
300000000000000000000000000000000000000000000000,
|
|
100000100000100000000000100000100000100000000000,
|
|
100000000000000000000000000000000000000000000000,
|
|
300000000000000000000000300000000000000000000000,
|
|
300000000000000000000000000000000000000000000000,
|
|
100000100000100000000000100000100000100000000000,
|
|
100000000000000000000000000000000000000000000000,
|
|
100000000000200000000000100000000000200000000000,
|
|
100000000000000000000000100000000000000000000000,
|
|
100000000000200000000000100000000000200000000000,
|
|
100000000000000000000000100000000000000000000000,
|
|
600000000000000000000000000800000000000000000000,
|
|
300000000000000000000000300000000000000000000000,
|
|
300000000000000000000000000000000000000000000000,
|
|
900000000000000000000000000000000000000000000008,
|
|
|
|
#GOGOEND
|
|
|
|
|
|
#END
|
|
|
|
|
|
COURSE:Easy
|
|
LEVEL:3
|
|
BALLOON:6
|
|
SCOREINIT:740
|
|
SCOREDIFF:338
|
|
|
|
|
|
#START
|
|
|
|
|
|
100000000000100000000000000000000000000000000000,
|
|
100000000000100000000000000000000000000000000000,
|
|
200000000000200000000000000000000000000000000000,
|
|
200000000000200000000000000000000000000000000000,
|
|
100000000000100000000000100000000000100000000000,
|
|
000000000000000000000000000000000000000000000000,
|
|
100000000000100000000000100000000000100000000000,
|
|
000000000000000000000000000000000000000000000000,
|
|
100000000000100000000000100000000000100000000000,
|
|
000000000000000000000000000000000000000000000000,
|
|
100000000000100000000000100000000000100000000000,
|
|
500000000000000000000000000800000000000000000000,
|
|
#GOGOSTART
|
|
300000000000000000000000300000000000000000000000,
|
|
300000000000000000000000000000000000000000000000,
|
|
100000000000100000000000100000000000100000000000,
|
|
100000000000000000000000000000000000000000000000,
|
|
300000000000000000000000300000000000000000000000,
|
|
300000000000000000000000000000000000000000000000,
|
|
100000000000100000000000100000000000100000000000,
|
|
100000000000000000000000000000000000000000000000,
|
|
100000000000000000000000100000000000000000000000,
|
|
100000000000100000000000100000000000000000000000,
|
|
100000000000000000000000100000000000000000000000,
|
|
200000000000200000000000200000000000000000000000,
|
|
600000000000000000000000000800000000000000000000,
|
|
300000000000000000000000300000000000000000000000,
|
|
300000000000000000000000000000000000000000000000,
|
|
000000000000000000000000000000000000000000000000,
|
|
#GOGOEND
|
|
100000000000000000000000100000000000000000000000,
|
|
100000000000100000000000100000000000000000000000,
|
|
100000000000000000000000100000000000000000000000,
|
|
100000000000100000000000100000000000000000000000,
|
|
100000000000000000000000100000000000000000000000,
|
|
100000000000100000000000100000000000100000000000,
|
|
100000000000000000000000100000000000100000000000,
|
|
100000000000000000000000000000000000000000000000,
|
|
100000000000000000000000100000000000000000000000,
|
|
100000000000100000000000100000000000000000000000,
|
|
100000000000000000000000100000000000000000000000,
|
|
200000000000200000000000200000000000000000000000,
|
|
100000000000000000000000100000000000000000000000,
|
|
100000000000100000000000100000000000100000000000,
|
|
100000000000000000000000100000000000100000000000,
|
|
500000000000000000000000000800000000000000000000,
|
|
|
|
#GOGOSTART
|
|
300000000000000000000000300000000000000000000000,
|
|
300000000000000000000000000000000000000000000000,
|
|
100000000000100000000000100000000000100000000000,
|
|
100000000000000000000000000000000000000000000000,
|
|
300000000000000000000000300000000000000000000000,
|
|
300000000000000000000000000000000000000000000000,
|
|
100000000000100000000000100000000000100000000000,
|
|
100000000000000000000000000000000000000000000000,
|
|
100000000000000000000000100000000000000000000000,
|
|
100000000000100000000000100000000000000000000000,
|
|
100000000000000000000000100000000000000000000000,
|
|
200000000000200000000000200000000000000000000000,
|
|
600000000000000000000000000800000000000000000000,
|
|
300000000000000000000000300000000000000000000000,
|
|
300000000000000000000000000000000000000000000000,
|
|
900000000000000000000000000000000000000000000008,
|
|
|
|
#GOGOEND
|
|
|
|
|
|
#END
|
|
|