533 lines
11 KiB
Plaintext
533 lines
11 KiB
Plaintext
//TJADB Project
|
|
TITLE:Xiao Yu Zhou
|
|
TITLEZH:小宇宙
|
|
SUBTITLE:--Sodagreen
|
|
SUBTITLEZH:蘇打綠
|
|
BPM:90
|
|
WAVE:Xiao Yu Zhou.ogg
|
|
OFFSET:-10.859
|
|
DEMOSTART:42.842
|
|
|
|
COURSE:Oni
|
|
LEVEL:7
|
|
SCOREINIT:900
|
|
SCOREDIFF:240
|
|
|
|
|
|
#START
|
|
|
|
|
|
100000100000200000100100100100100000200000100000,
|
|
100000000000200000100100100000100100200000100000,
|
|
100000100000200000100100100100100000200000100000,
|
|
100000000000200000100100100000100100200000100000,
|
|
100000100000200000200200100100100000200000100000,
|
|
100000000000200000100100100000100100200000100000,
|
|
100000100000200000200200100100100000200000100000,
|
|
100000000000200000100100100000100100200000100000,
|
|
#BPMCHANGE 85
|
|
#SCROLL 1.05882352941
|
|
100100100000
|
|
#BPMCHANGE 90
|
|
#SCROLL 1
|
|
200000100200
|
|
#BPMCHANGE 91
|
|
#SCROLL 0.98901098901
|
|
100100100000
|
|
#BPMCHANGE 90
|
|
#SCROLL 1
|
|
200000100200,
|
|
#BPMCHANGE 91
|
|
#SCROLL 0.98901098901
|
|
100100100000
|
|
#BPMCHANGE 89
|
|
#SCROLL 1.01123595506
|
|
200000100200
|
|
#BPMCHANGE 94
|
|
#SCROLL 0.95744680851
|
|
100100100000
|
|
#BPMCHANGE 89
|
|
#SCROLL 1.01123595506
|
|
200000100200,
|
|
#BPMCHANGE 90
|
|
#SCROLL 1
|
|
100100100000
|
|
#BPMCHANGE 92
|
|
#SCROLL 0.97826086956
|
|
200000100200
|
|
#BPMCHANGE 88
|
|
#SCROLL 1.02272727273
|
|
100100100000
|
|
#BPMCHANGE 92
|
|
#SCROLL 0.97826086956
|
|
200000100200,
|
|
#BPMCHANGE 90
|
|
#SCROLL 1
|
|
100100100000
|
|
#BPMCHANGE 89
|
|
#SCROLL 1.01123595506
|
|
200000100200
|
|
#BPMCHANGE 94
|
|
#SCROLL 0.95744680851
|
|
100100100000
|
|
#BPMCHANGE 89
|
|
#SCROLL 1.01123595506
|
|
200000100200,
|
|
#BPMCHANGE 87
|
|
#SCROLL 1.03448275862
|
|
100100100000
|
|
#BPMCHANGE 89.5
|
|
#SCROLL 1.00558659218
|
|
200000100100100100100000200000100200,
|
|
#BPMCHANGE 90
|
|
#SCROLL 1
|
|
100100100000200000100100200000100200200000100000,
|
|
100100100000200000100100100100100000200000100200,
|
|
#BPMCHANGE 89.5
|
|
#SCROLL 1.00558659218
|
|
100100100000200000100100200000100200100100100100,
|
|
#BPMCHANGE 91
|
|
#SCROLL 0.98901098901
|
|
100000100000200000100000100100100000200000100000,
|
|
#BPMCHANGE 89.7
|
|
#SCROLL 1.00334448161
|
|
100000100000200000100000100100100000200000100000,
|
|
#BPMCHANGE 89
|
|
#SCROLL 1.01123595506
|
|
100000100000200000100100100100100000200000100000,
|
|
#BPMCHANGE 91
|
|
#SCROLL 0.98901098901
|
|
100000100000200000000000400000100100100100100100,
|
|
|
|
#GOGOSTART
|
|
#BPMCHANGE 89
|
|
#SCROLL 1.01123595506
|
|
100000100000200000100000200200100000200000100000,
|
|
#BPMCHANGE 90.5
|
|
#SCROLL 0.99447513812
|
|
100000100000200000100000100200100000200000100100,
|
|
#BPMCHANGE 90
|
|
#SCROLL 1
|
|
100000100000200000100000100100100100100000100000,
|
|
500000000000000000000000000000000008000000000000,
|
|
100000100100200200100000200200100100200000200000,
|
|
#BPMCHANGE 89.5
|
|
#SCROLL 1.00558659218
|
|
100000100100200000100000200200100000100000100000,
|
|
#BPMCHANGE 90
|
|
#SCROLL 1
|
|
100000100100200200100000200200100100200000200000,
|
|
#BPMCHANGE 91
|
|
#SCROLL 0.98901098901
|
|
300000000000400000000000300000000000300000000000,
|
|
|
|
#GOGOEND
|
|
#BPMCHANGE 90
|
|
#SCROLL 1
|
|
100100100000200000100100100100100000200000100200,
|
|
#BPMCHANGE 89
|
|
#SCROLL 1.01123595506
|
|
100100100000200000100100200000100200200000100000,
|
|
#BPMCHANGE 91
|
|
#SCROLL 0.98901098901
|
|
100100100000200000100100100100100000200000100200,
|
|
#BPMCHANGE 89.5
|
|
#SCROLL 1.00558659218
|
|
100100100000200000100100200000100000200000000000,
|
|
|
|
|
|
#END
|
|
|
|
|
|
COURSE:Hard
|
|
LEVEL:5
|
|
SCOREINIT:970
|
|
SCOREDIFF:270
|
|
|
|
|
|
#START
|
|
|
|
|
|
11201120,
|
|
11201122,
|
|
11201120,
|
|
11201122,
|
|
1000202011102000,
|
|
1000202011102000,
|
|
1000202011102000,
|
|
1000202011102020,
|
|
#BPMCHANGE 85
|
|
#SCROLL 1.05882352941
|
|
1010
|
|
#BPMCHANGE 90
|
|
#SCROLL 1
|
|
2000
|
|
#BPMCHANGE 91
|
|
#SCROLL 0.98901098901
|
|
1110
|
|
#BPMCHANGE 90
|
|
#SCROLL 1
|
|
2000,
|
|
#BPMCHANGE 91
|
|
#SCROLL 0.98901098901
|
|
1010
|
|
#BPMCHANGE 89
|
|
#SCROLL 1.01123595506
|
|
2000
|
|
#BPMCHANGE 94
|
|
#SCROLL 0.95744680851
|
|
1110
|
|
#BPMCHANGE 89
|
|
#SCROLL 1.01123595506
|
|
2000,
|
|
#BPMCHANGE 90
|
|
#SCROLL 1
|
|
1010
|
|
#BPMCHANGE 92
|
|
#SCROLL 0.97826086956
|
|
2000
|
|
#BPMCHANGE 88
|
|
#SCROLL 1.02272727273
|
|
1110
|
|
#BPMCHANGE 92
|
|
#SCROLL 0.97826086956
|
|
2000,
|
|
#BPMCHANGE 90
|
|
#SCROLL 1
|
|
1010
|
|
#BPMCHANGE 89
|
|
#SCROLL 1.01123595506
|
|
2000
|
|
#BPMCHANGE 94
|
|
#SCROLL 0.95744680851
|
|
1110
|
|
#BPMCHANGE 89
|
|
#SCROLL 1.01123595506
|
|
2000,
|
|
#BPMCHANGE 87
|
|
#SCROLL 1.03448275862
|
|
1010
|
|
#BPMCHANGE 89.5
|
|
#SCROLL 1.00558659218
|
|
201011102000,
|
|
#BPMCHANGE 90
|
|
#SCROLL 1
|
|
1010201011102000,
|
|
1010201011102000,
|
|
#BPMCHANGE 89.5
|
|
#SCROLL 1.00558659218
|
|
1010201011102220,
|
|
#BPMCHANGE 91
|
|
#SCROLL 0.98901098901
|
|
10211120,
|
|
#BPMCHANGE 89.7
|
|
#SCROLL 1.00334448161
|
|
10211120,
|
|
#BPMCHANGE 89
|
|
#SCROLL 1.01123595506
|
|
500000000000000000000000000000008000000000000000,
|
|
#BPMCHANGE 91
|
|
#SCROLL 0.98901098901
|
|
11204000,
|
|
|
|
#GOGOSTART
|
|
#BPMCHANGE 89
|
|
#SCROLL 1.01123595506
|
|
1000201022202000,
|
|
#BPMCHANGE 90.5
|
|
#SCROLL 0.99447513812
|
|
1000201022202020,
|
|
#BPMCHANGE 90
|
|
#SCROLL 1
|
|
1000201011101010,
|
|
500000000000000000000000000000000008000000000000,
|
|
1022202022202000,
|
|
#BPMCHANGE 89.5
|
|
#SCROLL 1.00558659218
|
|
1022202011101010,
|
|
#BPMCHANGE 90
|
|
#SCROLL 1
|
|
1022202022202020,
|
|
#BPMCHANGE 91
|
|
#SCROLL 0.98901098901
|
|
3433,
|
|
|
|
#GOGOEND
|
|
#BPMCHANGE 90
|
|
#SCROLL 1
|
|
1010201011102000,
|
|
#BPMCHANGE 89
|
|
#SCROLL 1.01123595506
|
|
1010201011102000,
|
|
#BPMCHANGE 91
|
|
#SCROLL 0.98901098901
|
|
1010201011102000,
|
|
#BPMCHANGE 89.5
|
|
#SCROLL 1.00558659218
|
|
1010201011102220,
|
|
|
|
|
|
#END
|
|
|
|
|
|
COURSE:Normal
|
|
LEVEL:4
|
|
SCOREINIT:1570
|
|
SCOREDIFF:610
|
|
|
|
|
|
#START
|
|
|
|
|
|
100000000000000000000000100000100000100000000000,
|
|
100000000000000000000000200000200000200000000000,
|
|
100000000000000000000000100000100000100000000000,
|
|
100000000000000000000000200000200000200000000000,
|
|
100000000000000000000000100000100000100000000000,
|
|
100000000000000000000000200000200000200000000000,
|
|
100000000000000000000000100000100000100000000000,
|
|
100000000000000000000000100000000000000000000000,
|
|
#BPMCHANGE 85
|
|
#SCROLL 1.05882352941
|
|
100000100000
|
|
#BPMCHANGE 90
|
|
#SCROLL 1
|
|
000000000000
|
|
#BPMCHANGE 91
|
|
#SCROLL 0.98901098901
|
|
100000100000
|
|
#BPMCHANGE 90
|
|
#SCROLL 1
|
|
000000000000,
|
|
#BPMCHANGE 91
|
|
#SCROLL 0.98901098901
|
|
100000100000
|
|
#BPMCHANGE 89
|
|
#SCROLL 1.01123595506
|
|
000000000000
|
|
#BPMCHANGE 94
|
|
#SCROLL 0.95744680851
|
|
100000100000
|
|
#BPMCHANGE 89
|
|
#SCROLL 1.01123595506
|
|
000000000000,
|
|
#BPMCHANGE 90
|
|
#SCROLL 1
|
|
100000100000
|
|
#BPMCHANGE 92
|
|
#SCROLL 0.97826086956
|
|
000000000000
|
|
#BPMCHANGE 88
|
|
#SCROLL 1.02272727273
|
|
100000100000
|
|
#BPMCHANGE 92
|
|
#SCROLL 0.97826086956
|
|
000000000000,
|
|
#BPMCHANGE 90
|
|
#SCROLL 1
|
|
100000100000
|
|
#BPMCHANGE 89
|
|
#SCROLL 1.01123595506
|
|
000000000000
|
|
#BPMCHANGE 94
|
|
#SCROLL 0.95744680851
|
|
100000100000
|
|
#BPMCHANGE 89
|
|
#SCROLL 1.01123595506
|
|
000000000000,
|
|
#BPMCHANGE 87
|
|
#SCROLL 1.03448275862
|
|
100000100000
|
|
#BPMCHANGE 89.5
|
|
#SCROLL 1.00558659218
|
|
000000000000100000000000000000000000,
|
|
#BPMCHANGE 90
|
|
#SCROLL 1
|
|
100000100000000000000000200000000000000000000000,
|
|
100000100000000000000000100000000000000000000000,
|
|
#BPMCHANGE 89.5
|
|
#SCROLL 1.00558659218
|
|
100000100000000000000000200000000000000000000000,
|
|
#BPMCHANGE 91
|
|
#SCROLL 0.98901098901
|
|
100000000000100000000000100000000000000000000000,
|
|
#BPMCHANGE 89.7
|
|
#SCROLL 1.00334448161
|
|
200000000000200000000000200000000000000000000000,
|
|
#BPMCHANGE 89
|
|
#SCROLL 1.01123595506
|
|
500000000000000000000000800000000000000000000000,
|
|
#SCROLL 0.98901098901
|
|
100000000000000000000000400000000000000000000000,
|
|
|
|
#GOGOSTART
|
|
#BPMCHANGE 89
|
|
#SCROLL 1.01123595506
|
|
100000000000200000000000100000000000200000000000,
|
|
#BPMCHANGE 90.5
|
|
#SCROLL 0.99447513812
|
|
100000000000100000000000000000000000000000000000,
|
|
#BPMCHANGE 90
|
|
#SCROLL 1
|
|
100000000000200000000000100000000000200000000000,
|
|
500000000000000000000000800000000000000000000000,
|
|
100000000000100000000000200000000000200000000000,
|
|
#BPMCHANGE 89.5
|
|
#SCROLL 1.00558659218
|
|
100000000000000000000000100000000000100000000000,
|
|
#BPMCHANGE 90
|
|
#SCROLL 1
|
|
100000000000100000000000100000000000100000000000,
|
|
#BPMCHANGE 91
|
|
#SCROLL 0.98901098901
|
|
300000000000300000000000300000000000300000000000,
|
|
|
|
#GOGOEND
|
|
#BPMCHANGE 90
|
|
#SCROLL 1
|
|
100000100000000000000000100000000000000000000000,
|
|
#BPMCHANGE 89
|
|
#SCROLL 1.01123595506
|
|
100000100000000000000000200000000000000000000000,
|
|
#BPMCHANGE 91
|
|
#SCROLL 0.98901098901
|
|
100000100000000000000000100000000000000000000000,
|
|
#BPMCHANGE 89.5
|
|
#SCROLL 1.00558659218
|
|
100000100000000000000000200000000000200000000000,
|
|
|
|
|
|
#END
|
|
|
|
|
|
COURSE:Easy
|
|
LEVEL:3
|
|
SCOREINIT:1250
|
|
SCOREDIFF:640
|
|
|
|
|
|
#START
|
|
|
|
|
|
100000000000000000000000100000000000100000000000,
|
|
100000000000000000000000200000000000000000000000,
|
|
100000000000000000000000100000000000100000000000,
|
|
100000000000000000000000200000000000000000000000,
|
|
100000000000000000000000100000000000100000000000,
|
|
100000000000000000000000200000000000000000000000,
|
|
100000000000000000000000100000000000100000000000,
|
|
100000000000000000000000100000000000000000000000,
|
|
#BPMCHANGE 85
|
|
#SCROLL 1.05882352941
|
|
100000000000
|
|
#BPMCHANGE 90
|
|
#SCROLL 1
|
|
000000000000
|
|
#BPMCHANGE 91
|
|
#SCROLL 0.98901098901
|
|
100000000000
|
|
#BPMCHANGE 90
|
|
#SCROLL 1
|
|
000000000000,
|
|
#BPMCHANGE 91
|
|
#SCROLL 0.98901098901
|
|
100000000000
|
|
#BPMCHANGE 89
|
|
#SCROLL 1.01123595506
|
|
000000000000
|
|
#BPMCHANGE 94
|
|
#SCROLL 0.95744680851
|
|
100000000000
|
|
#BPMCHANGE 89
|
|
#SCROLL 1.01123595506
|
|
000000000000,
|
|
#BPMCHANGE 90
|
|
#SCROLL 1
|
|
100000000000
|
|
#BPMCHANGE 92
|
|
#SCROLL 0.97826086956
|
|
000000000000
|
|
#BPMCHANGE 88
|
|
#SCROLL 1.02272727273
|
|
100000000000
|
|
#BPMCHANGE 92
|
|
#SCROLL 0.97826086956
|
|
000000000000,
|
|
#BPMCHANGE 90
|
|
#SCROLL 1
|
|
100000000000
|
|
#BPMCHANGE 89
|
|
#SCROLL 1.01123595506
|
|
000000000000
|
|
#BPMCHANGE 94
|
|
#SCROLL 0.95744680851
|
|
100000000000
|
|
#BPMCHANGE 89
|
|
#SCROLL 1.01123595506
|
|
000000000000,
|
|
#BPMCHANGE 87
|
|
#SCROLL 1.03448275862
|
|
100000000000
|
|
#BPMCHANGE 89.5
|
|
#SCROLL 1.00558659218
|
|
000000000000100000000000100000000000,
|
|
#BPMCHANGE 90
|
|
#SCROLL 1
|
|
100000000000000000000000200000000000000000000000,
|
|
100000000000000000000000100000000000100000000000,
|
|
#BPMCHANGE 89.5
|
|
#SCROLL 1.00558659218
|
|
100000000000000000000000200000000000000000000000,
|
|
#BPMCHANGE 91
|
|
#SCROLL 0.98901098901
|
|
100000000000000000000000100000000000000000000000,
|
|
#BPMCHANGE 89.7
|
|
#SCROLL 1.00334448161
|
|
200000000000000000000000200000000000000000000000,
|
|
#BPMCHANGE 89
|
|
#SCROLL 1.01123595506
|
|
500000000000000000000000800000000000000000000000,
|
|
#BPMCHANGE 91
|
|
#SCROLL 0.98901098901
|
|
100000000000000000000000300000000000000000000000,
|
|
|
|
#GOGOSTART
|
|
#BPMCHANGE 89
|
|
#SCROLL 1.01123595506
|
|
100000000000100000000000100000000000000000000000,
|
|
#BPMCHANGE 90.5
|
|
#SCROLL 0.99447513812
|
|
100000000000100000000000000000000000000000000000,
|
|
#BPMCHANGE 90
|
|
#SCROLL 1
|
|
100000000000100000000000100000000000100000000000,
|
|
500000000000000000000000800000000000000000000000,
|
|
100000000000100000000000100000000000100000000000,
|
|
#BPMCHANGE 89.5
|
|
#SCROLL 1.00558659218
|
|
100000000000000000000000100000000000100000000000,
|
|
#BPMCHANGE 90
|
|
#SCROLL 1
|
|
100000000000100000000000100000000000100000000000,
|
|
#BPMCHANGE 91
|
|
#SCROLL 0.98901098901
|
|
300000000000300000000000300000000000300000000000,
|
|
|
|
#GOGOEND
|
|
#BPMCHANGE 90
|
|
#SCROLL 1
|
|
100000000000000000000000100000000000100000000000,
|
|
#BPMCHANGE 89
|
|
#SCROLL 1.01123595506
|
|
100000000000000000000000200000000000000000000000,
|
|
#BPMCHANGE 91
|
|
#SCROLL 0.98901098901
|
|
100000000000000000000000100000000000100000000000,
|
|
#BPMCHANGE 89.5
|
|
#SCROLL 1.00558659218
|
|
100000000000000000000000200000000000200000000000,
|
|
|
|
|
|
#END
|
|
|