Files
ESE/02 Anime/No buts!/No buts!.tja
T
2023-09-16 17:39:30 -05:00

352 lines
12 KiB
Plaintext

//TJADB Project
TITLE:No buts!
TITLEJA:No buts!
SUBTITLE:--Tomoyuki Nakazawa feat. Mami Kawada/Toaru Majutsu no Index Ⅱ
SUBTITLEJA:「とある魔術の禁書目録II」より
BPM:183
WAVE:No buts!.ogg
OFFSET:-1.504
DEMOSTART:53.614
COURSE:Oni
LEVEL:7
BALLOON:5
SCOREINIT:570
SCOREDIFF:140
#START
12212212,
2010201020222010,
12212212,
2010201020222010,
12212212,
2010201020222010,
12212212,
1110101110101010,
12012012,
0010200011102000,
12012012,
0010200011112000,
12201201,
2000102011102000,
12201201,
2000102011112000,
1000200010111010,
01202120,
1000200010111010,
01202120,
1000200010111010,
01202120,
10212021,
11202120,
1020001020102011,
11212010,
1020001020102011,
11212010,
33033033,
03303333,
33033033,
03303333,
3000200011102000,
1010200011102000,
2011102011102010,
2210102210201000,
30360000,
000000000000000000000000000000000008000000000000,
33303033,
78,
#GOGOSTART
1011101110102010,
1011101110102010,
1011101110102010,
0010201110102000,
1010201110102010,
1010201110102010,
1010201110102010,
33030300,
1000201000112010,
1000201000112020,
1000201000112010,
0010201110102000,
1010201110102010,
1010201110102010,
1010201110102010,
33030300,
12210210,
12210210,
5,
000000000000000008000000000000000000000000000000,
#GOGOEND
12212212,
2010201020222010,
12212212,
2010201020222010,
00121221,
2020102020222010,
12212212,
2010201020222010,
#END
COURSE:Hard
LEVEL:4
BALLOON:10
SCOREINIT:710
SCOREDIFF:180
#START
300000000000100000000000100000000000100000000000,
100000000000100000000000400000000000000000000000,
300000000000100000000000100000000000100000000000,
100000000000100000000000400000000000000000000000,
300000000000100000000000100000000000100000000000,
100000000000100000000000400000000000000000000000,
300000000000100000000000100000000000100000000000,
100000100000100000000000100000100000100000100000,
100000000000000000000000000000000000000000000000,
000000000000000000000000400000000000000000000000,
300000300000000000000000000000000000000000000000,
000000000000000000000000400000000000000000000000,
100000100000100000000000100000100000000000100000,
100000000000100000000000400000000000000000000000,
100000100000100000000000100000100000000000100000,
100000000000100000000000400000000000000000000000,
100000000000100000000000100000000000100000100000,
000000100000100000000000200000000000000000000000,
100000000000100000000000100000000000100000100000,
000000100000100000000000200000000000000000000000,
100000000000100000000000100000000000100000100000,
000000100000100000000000200000000000000000000000,
100000000000000000100000200000000000000000000000,
100000000000000000100000200000000000200000000000,
500000000000000000000000000000000000000000000000,
000000000000000000000000000000000000000000000080,
000000000000000000000000000000000000000000000000,
000000000000000000000000000000000000000000000000,
300000300000000000300000300000000000300000300000,
000000300000300000000000300000300000300000000000,
300000300000000000300000300000000000300000300000,
000000300000300000000000300000300000300000000000,
100000000000200000000000100000100000200000000000,
100000000000200000000000100000100000200000000000,
100000100000200000000000100000100000200000000000,
000000300000000000000000300000000000300000000000,
600000000000000000000000000000000000000000000000,
000000000000000000000000000000000000000000000080,
000000000000000000000000000000000000000000000000,
000000000000000000000000000000000000000000000000,
#GOGOSTART
100000000000100000000000100000100000100000000000,
100000000000100000000000100000100000100000000000,
100000000000200000000000100000100000100000000000,
100000000000200000000000100000100000100000000000,
100000000000200000000000100000100000200000000000,
100000000000200000000000100000100000200000000000,
100000100000200000000000100000100000200000000000,
300000300000000000300000000000300000000000000000,
100000000000000000100000000000100000200000000000,
100000000000100000100000000000100000200000000000,
100000000000000000100000000000100000200000000000,
100000000000100000100000000000100000200000000000,
100000000000200000000000100000100000200000000000,
100000000000200000000000100000100000200000000000,
100000100000200000000000100000100000200000000000,
300000300000000000300000000000300000000000000000,
700000000000000000000000000000000000000000000000,
000000000000000000800000000000000000000000000000,
600000000000000000000000000000000000000000000000,
000000000000000080000000000000000000000000000000,
#GOGOEND
300000000000100000000000100000000000100000000000,
100000000000100000000000400000000000000000000000,
300000000000100000000000100000000000100000000000,
100000000000100000000000400000000000000000000000,
000000000000300000000000300000000000300000000000,
300000000000300000000000400000000000000000000000,
300000000000300000000000300000000000300000000000,
300000000000300000000000400000000000000000000000,
#END
COURSE:Normal
LEVEL:3
BALLOON:4,4
SCOREINIT:810
SCOREDIFF:230
#START
100000000000100000000000100000000000000000000000,
100000000000100000000000200000000000000000000000,
100000000000100000000000100000000000000000000000,
100000000000100000000000200000000000000000000000,
100000000000100000000000100000000000000000000000,
100000000000100000000000200000000000000000000000,
100000000000100000000000100000000000000000000000,
100000000000100000000000100000100000100000000000,
300000000000000000000000000000000000000000000000,
000000000000000000000000400000000000000000000000,
300000000000000000000000000000000000000000000000,
000000000000000000000000400000000000000000000000,
100000000000100000000000100000000000000000000000,
100000000000100000000000200000000000000000000000,
100000000000100000000000100000000000000000000000,
100000000000100000000000200000000000000000000000,
100000000000100000000000100000000000000000000000,
100000000000100000000000000000000000000000000000,
100000000000100000000000100000000000000000000000,
100000000000100000000000000000000000000000000000,
100000000000100000000000100000000000000000000000,
100000000000100000000000000000000000000000000000,
100000000000000000000000200000000000000000000000,
100000000000000000000000200000000000000000000000,
500000000000000000000000000000000000000000000000,
000000000000000000000000000000000000000000000080,
000000000000000000000000000000000000000000000000,
000000000000000000000000000000000000000000000000,
300000000000000000000000300000000000000000000000,
300000000000000000000000300000000000300000000000,
300000000000000000000000300000000000000000000000,
300000000000000000000000300000000000300000000000,
300000000000000000000000000000000000400000000000,
300000000000000000000000000000000000400000000000,
300000000000000000000000300000000000000000000000,
300000000000000000000000300000000000300000000000,
600000000000000000000000000000000000000000000000,
000000000000000000000000000000000000000000000080,
000000000000000000000000000000000000000000000000,
000000000000000000000000000000000000000000000000,
#GOGOSTART
100000000000100000000000100000000000000000000000,
100000100000100000000000100000000000000000000000,
100000000000100000000000100000000000000000000000,
100000100000100000000000100000000000000000000000,
100000000000000000000000100000000000000000000000,
100000000000100000000000100000000000000000000000,
100000100000100000000000300000000000000000000000,
700000000000000000000000000000800000000000000000,
100000000000000000000000200000000000000000000000,
100000000000100000100000100000000000000000000000,
100000000000000000000000200000000000000000000000,
100000000000100000100000100000000000000000000000,
100000000000000000000000100000000000000000000000,
100000000000100000000000100000000000000000000000,
100000100000100000000000300000000000000000000000,
700000000000000000000000000000800000000000000000,
500000000000000000000000000000000000000000000000,
000000000000000080000000000000000000000000000000,
600000000000000000000000000000000000000000000000,
000000000000000080000000000000000000000000000000,
#GOGOEND
100000000000100000000000100000000000000000000000,
100000000000100000000000200000000000000000000000,
100000000000100000000000100000000000000000000000,
100000000000100000000000200000000000000000000000,
000000000000300000000000300000000000000000000000,
300000000000300000000000400000000000000000000000,
300000000000300000000000300000000000000000000000,
300000000000300000000000400000000000000000000000,
#END
COURSE:Easy
LEVEL:3
BALLOON:3,3
SCOREINIT:670
SCOREDIFF:200
#START
100000000000100000000000100000000000000000000000,
100000000000000000000000200000000000000000000000,
100000000000100000000000100000000000000000000000,
100000000000000000000000200000000000000000000000,
100000000000100000000000100000000000000000000000,
100000000000000000000000200000000000000000000000,
100000000000100000000000100000000000000000000000,
100000000000100000000000100000000000000000000000,
300000000000000000000000000000000000000000000000,
000000000000000000000000400000000000000000000000,
300000000000000000000000000000000000000000000000,
000000000000000000000000400000000000000000000000,
100000000000000000000000100000000000000000000000,
100000000000000000000000200000000000000000000000,
100000000000000000000000100000000000000000000000,
100000000000000000000000200000000000000000000000,
100000000000100000000000100000000000000000000000,
100000000000000000000000000000000000000000000000,
100000000000100000000000100000000000000000000000,
100000000000000000000000000000000000000000000000,
100000000000100000000000100000000000000000000000,
100000000000000000000000000000000000000000000000,
100000000000000000000000200000000000000000000000,
100000000000000000000000200000000000000000000000,
500000000000000000000000000000000000000000000000,
000000000000000000000000000000000000000000000080,
000000000000000000000000000000000000000000000000,
000000000000000000000000000000000000000000000000,
300000000000000000000000000000000000000000000000,
300000000000000000000000300000000000000000000000,
300000000000000000000000000000000000000000000000,
300000000000000000000000300000000000000000000000,
300000000000000000000000000000000000300000000000,
300000000000000000000000000000000000300000000000,
300000000000000000000000300000000000000000000000,
300000000000000000000000300000000000000000000000,
600000000000000000000000000000000000000000000000,
000000000000000000000000000000000000000000000080,
000000000000000000000000000000000000000000000000,
000000000000000000000000000000000000000000000000,
#GOGOSTART
100000000000000000000000100000000000000000000000,
100000000000100000000000100000000000000000000000,
100000000000000000000000100000000000000000000000,
100000000000100000000000100000000000000000000000,
100000000000000000000000100000000000000000000000,
100000000000100000000000100000000000000000000000,
300000000000300000000000300000000000000000000000,
700000000000000000000000000000800000000000000000,
100000000000000000000000200000000000000000000000,
100000000000100000000000100000000000000000000000,
100000000000000000000000200000000000000000000000,
100000000000100000000000100000000000000000000000,
100000000000000000000000100000000000000000000000,
100000000000100000000000100000000000000000000000,
300000000000300000000000300000000000000000000000,
700000000000000000000000000000800000000000000000,
500000000000000000000000000000000000000000000000,
000000000000000080000000000000000000000000000000,
600000000000000000000000000000000000000000000000,
000000000000000080000000000000000000000000000000,
#GOGOEND
100000000000100000000000100000000000000000000000,
100000000000000000000000200000000000000000000000,
100000000000100000000000100000000000000000000000,
100000000000000000000000200000000000000000000000,
000000000000300000000000300000000000000000000000,
300000000000000000000000400000000000000000000000,
300000000000300000000000300000000000000000000000,
300000000000000000000000400000000000000000000000,
#END