431 lines
16 KiB
Plaintext
431 lines
16 KiB
Plaintext
//TJADB Project
|
||
TITLE:Genki Tripper
|
||
TITLEJA:ゲンキトリッパー
|
||
SUBTITLE:--Hiroshi Okubo feat. Mayako Nigo/THE iDOLM@STER MUST SONGS: Red Album
|
||
BPM:175
|
||
WAVE:Genki Tripper.ogg
|
||
OFFSET:-1.519
|
||
DEMOSTART:75.053
|
||
|
||
COURSE:Oni
|
||
LEVEL:7
|
||
BALLOON:24,24
|
||
SCOREINIT:560
|
||
SCOREDIFF:135
|
||
NOTESDESIGNER3:Kuboken
|
||
|
||
|
||
#START
|
||
|
||
|
||
200000000000200000000000200000000000200000000000,
|
||
200000000000200000000000200000000000200000000000,
|
||
300000000000000000000000200000100000200000100000,
|
||
000000100000000000500000000000000000000000000000,
|
||
000000000000000000000000000008000000000000100000,
|
||
100000000000200000100000200000100000200000100100,
|
||
200000100000200000100000200000100100200000100000,
|
||
000000100000200000100000100100100000200000100000,
|
||
000000100000200000100000100100100000200000100000,
|
||
100000100000200000100000200000100000000000100100,
|
||
200000100000200000100000200000100100200000100000,
|
||
000000100000200000100000100100100000200000100000,
|
||
000000100000200000100000100100100000200000100000,
|
||
000000100000200000100000200000100000200000100100,
|
||
200000100000200000100000200000100100200000100000,
|
||
000000100000200000100000100100100000200000100000,
|
||
000000100000200000100000100100100000200000100000,
|
||
000000100000200000100000200000100000000000100200,
|
||
200000100000200000100000200000100100200000100000,
|
||
000000100000200000100000100100100000200000100000,
|
||
000000100000200000100000100000200200200000500000,
|
||
000000000000000000000000000000000000000000000000,
|
||
000000000000000008000000000000300000000000300000,
|
||
000000100000200000100000100100100000200000100000,
|
||
200200200000200200200000200200200200200000500000,
|
||
000000000000000000000000000000000000000000000000,
|
||
000000000000000008000000000000400000000000400000,
|
||
000000100000200000100000100100100000200000100000,
|
||
000000200000200000200000000000400000000000100000,
|
||
100000000000200000100000200000200200200000100000,
|
||
200000100000200000100000200000100100200000100000,
|
||
000000100000200000100000100100100000200000100000,
|
||
000000100000200000100000100100100000200000100000,
|
||
200000100000200000000000200000100200200000100000,
|
||
200000100000200000100000200000100100200000100000,
|
||
000000100000200000100000100100100000200000100000,
|
||
000000100000200000100000100100100000200000100000,
|
||
000000100000200000100000200000100200200000100200,
|
||
200000100000200000100000200000100200200000100000,
|
||
000000100000200000100000100100100000200000100000,
|
||
000000100000200000100000100100100000200000100000,
|
||
000000100000200000100000200000100200200000100200,
|
||
200000100000200000100000200000100200200000100000,
|
||
000000100000200000100000100100100000200000100000,
|
||
000000100000200000100000000000200000100000200000,
|
||
200000000000200000000000200000000000200000100000,
|
||
200000100000200000000000200000000000200000100000,
|
||
200000100000200000100000000000100000200000100000,
|
||
000000100000200000100000200200200000200000100000,
|
||
200000000000200000000000200000000000200000100000,
|
||
200000100000200000000000200000100000100000200000,
|
||
100100100000200200200000100100100000200200200000,
|
||
100100100000200200200000500000000000000000000000,
|
||
000000000008000000000000000000200200200000300000,
|
||
|
||
#GOGOSTART
|
||
000000100100200000100000100100200000200000100000,
|
||
000000100000200000100000000000200200200000100000,
|
||
000000100000200000100000200000100000000000300000,
|
||
000000100000200000100000000000200200200000300000,
|
||
000000100100200000100000100100200000200000100000,
|
||
000000100000200000100000000000100000200000200200,
|
||
100000100100100000100100100000100100100000400000,
|
||
000000400000000000400000000000200200200000300000,
|
||
000000100100200000100000100100200000200000100000,
|
||
000000100000200000100000000000200200200000100000,
|
||
000000100000200000100000200000100000000000300000,
|
||
000000100000200000100000000000200200200000300000,
|
||
000000100100200000100000100100200000200000100000,
|
||
000000100000200000100000000000100000200000000000,
|
||
200000000000100000000000100000000000300000300000,
|
||
300000300000000000300000000000400000000000500000,
|
||
000000000000000000000000000000000000000000000000,
|
||
000000000000000000000000000000000008000000000000,
|
||
100000000000200000000000100000200200200000100000,
|
||
000000100000200000100000000000200200200000700000,
|
||
200400000000000000000000000000000000000000000000,
|
||
000000000000000000000000000000000000800000000000,
|
||
100000000000200000000000100000200200200000100000,
|
||
000000100000000000100000000000200200200000500000,
|
||
000000000000000000000000000000000000000000000000,
|
||
000000000000000000000000000000000008000000000000,
|
||
100000000000200000000000100000200200200000100000,
|
||
000000100000200000100000000000200200200000700000,
|
||
200400000000000000000000000000000000000000000000,
|
||
000000000000000000000000000000000000800000000000,
|
||
000000000000300000000000300000000000300000300000,
|
||
300000300000000000500000000000000000000000000000,
|
||
000000000000000000000000000008000000000000000000,
|
||
#GOGOEND
|
||
400000000000000000000000000000000000000000000000,
|
||
|
||
|
||
#END
|
||
|
||
|
||
COURSE:Hard
|
||
LEVEL:6
|
||
BALLOON:20,20,20,20,20,20
|
||
SCOREINIT:620
|
||
SCOREDIFF:145
|
||
|
||
|
||
#START
|
||
|
||
|
||
000000000000000000000000000000000000000000000000,
|
||
000000000000000000000000000000000000000000000000,
|
||
300000000000000000000000200000100000200000100000,
|
||
000000100000000000500000000000000000000000000000,
|
||
000000000000000000000000800000000000000000100000,
|
||
100000000000200000100000200000100000200000100000,
|
||
000000100000200000100000200000100000200000100000,
|
||
000000100000200000100000100000100000200000100000,
|
||
000000100000200000100000100000100000200000100000,
|
||
100000100000200000100000200000100000000000100000,
|
||
000000100000200000100000200000100000200000100000,
|
||
000000100000200000100000100000100000200000100000,
|
||
000000100000200000100000100000100000200000100000,
|
||
000000100000200000100000200000100000200000100000,
|
||
000000100000200000100000200000100000200000100000,
|
||
000000100000200000100000100000100000200000100000,
|
||
000000100000200000100000100000100000200000100000,
|
||
000000100000200000100000200000100000000000100000,
|
||
000000100000200000100000200000100000200000100000,
|
||
000000100000200000100000100000100000200000100000,
|
||
000000100000200000100000100000200200200000900000,
|
||
,
|
||
,
|
||
8,
|
||
000000000000000000000000200000200200200000900000,
|
||
,
|
||
,
|
||
8,
|
||
000000000000000000000000000000000000000000100000,
|
||
100000000000200000100000200000000000200000100000,
|
||
200000100000200000100000200000100000200000100000,
|
||
000000100000200000100000100000100000200000100000,
|
||
000000100000200000100000100000100000200000100000,
|
||
200000100000200000000000200000100000000000100000,
|
||
200000100000200000100000200000100000200000100000,
|
||
000000100000200000100000100000100000200000100000,
|
||
000000100000200000100000100000100000200000100000,
|
||
000000100000200000100000200000100000000000100000,
|
||
000000100000200000100000200000100000000000100000,
|
||
000000100000200000100000100000100000200000100000,
|
||
000000100000200000100000100000100000200000100000,
|
||
000000100000200000100000200000100000000000100000,
|
||
000000100000200000100000200000100000000000100000,
|
||
000000100000200000100000100000100000200000100000,
|
||
000000100000200000100000000000200000100000200000,
|
||
100000000000200000000000200000000000200000100000,
|
||
200000100000200000000000200000000000200000100000,
|
||
200000100000200000100000000000100000200000100000,
|
||
000000100000200000100000200000000000200000100000,
|
||
200000000000200000000000200000000000200000100000,
|
||
200000100000200000000000200000100000200000000000,
|
||
100100100000200000000000100100100000200000000000,
|
||
100100100000200000000000500000000000000000000000,
|
||
000000000800000000000000000000200200200000300000,
|
||
#GOGOSTART
|
||
000000000000200000000000200000100000200000100000,
|
||
000000100000200000100000000000200000200000100000,
|
||
000000100000200000100000200000100000000000300000,
|
||
000000100000200000100000000000200200200000300000,
|
||
000000000000200000000000200000100000200000100000,
|
||
000000100000200000100000000000100000200000000000,
|
||
100000000000200000100000200000000000100000400000,
|
||
000000400000000000400000000000200200200000300000,
|
||
000000000000200000000000200000100000200000100000,
|
||
000000100000200000100000000000200000200000100000,
|
||
000000100000200000100000200000100000000000300000,
|
||
000000100000200000100000000000200200200000300000,
|
||
000000000000200000100000200000000000200000100000,
|
||
000000100000200000100000000000100000200000000000,
|
||
200000000000100000000000100000000000300000300000,
|
||
300000300000000000300000000000400000000000900000,
|
||
,
|
||
,
|
||
8,
|
||
000000000000000000000000000000200200200000700000,
|
||
,
|
||
,
|
||
8,
|
||
000000000000000000000000000000200200200000900000,
|
||
,
|
||
,
|
||
8,
|
||
000000000000000000000000000000200200200000700000,
|
||
,
|
||
,
|
||
800000000000300000000000300000000000300000300000,
|
||
300000300000000000500000000000000000000000000000,
|
||
000000000000000000000000800000000000000000000000,
|
||
#GOGOEND
|
||
400000000000000000000000000000000000000000000000,
|
||
|
||
|
||
#END
|
||
|
||
|
||
COURSE:Normal
|
||
LEVEL:5
|
||
BALLOON:13,13,13,13,13,13
|
||
SCOREINIT:790
|
||
SCOREDIFF:248
|
||
|
||
|
||
#START
|
||
|
||
|
||
000000000000000000000000000000000000000000000000,
|
||
000000000000000000000000000000000000000000000000,
|
||
300000000000000000000000100000100000000000100000,
|
||
000000100000000000500000000000000000000000000000,
|
||
000000000000000000000000800000000000000000000000,
|
||
000000000000100000000000000000000000100000000000,
|
||
000000000000100000000000100000000000100000100000,
|
||
000000000000300000000000000000000000300000000000,
|
||
000000000000300000000000000000000000300000000000,
|
||
000000000000100000000000000000000000100000000000,
|
||
000000000000100000000000100000000000100000100000,
|
||
000000000000300000000000000000000000300000000000,
|
||
000000000000300000000000000000000000300000000000,
|
||
000000000000100000000000000000000000100000000000,
|
||
000000000000100000000000100000000000100000100000,
|
||
000000000000300000000000000000000000300000000000,
|
||
000000000000300000000000000000000000300000000000,
|
||
000000000000200000000000000000000000200000000000,
|
||
000000000000200000000000200000000000200000200000,
|
||
000000000000300000000000000000000000300000000000,
|
||
000000000000300000000000000000000000300000900000,
|
||
,
|
||
,
|
||
8,
|
||
000000000000000000000000100000100000100000900000,
|
||
,
|
||
,
|
||
8,
|
||
,
|
||
000000000000100000000000000000000000100000000000,
|
||
000000000000100000000000100000000000100000100000,
|
||
000000000000300000000000000000000000300000000000,
|
||
000000000000300000000000000000000000300000000000,
|
||
000000000000100000000000000000000000100000000000,
|
||
000000000000100000000000100000000000100000100000,
|
||
000000000000300000000000000000000000300000000000,
|
||
000000000000300000000000000000000000300000000000,
|
||
000000000000100000000000000000000000100000000000,
|
||
000000000000100000000000100000000000100000100000,
|
||
000000000000300000000000000000000000300000000000,
|
||
000000000000300000000000000000000000300000000000,
|
||
000000000000200000000000000000000000200000000000,
|
||
000000000000200000000000200000000000200000200000,
|
||
000000000000300000000000000000000000300000000000,
|
||
000000000000300000000000000000000000300000000000,
|
||
000000000000200000000000200000000000200000000000,
|
||
200000000000200000000000200000000000100000100000,
|
||
100000000000100000000000100000000000100000000000,
|
||
100000000000100000000000100000000000100000100000,
|
||
100000000000200000000000200000000000200000000000,
|
||
200000000000200000000000200000000000200000000000,
|
||
100000000000200000000000100000000000200000000000,
|
||
100000000000200000000000500000000000000000000000,
|
||
000000800000000000000000000000000000000000300000,
|
||
#GOGOSTART
|
||
000000000000100000000000100000000000100000100000,
|
||
000000100000100000100000000000000000000000300000,
|
||
000000000000100000000000100000000000000000300000,
|
||
000000000000000000000000000000000000000000300000,
|
||
000000000000100000000000100000000000100000100000,
|
||
000000100000100000100000000000000000000000000000,
|
||
000000000000100000000000100000000000000000400000,
|
||
000000400000000000400000000000000000000000300000,
|
||
000000000000100000000000100000000000100000100000,
|
||
000000100000100000100000000000000000000000300000,
|
||
000000000000100000000000100000000000000000300000,
|
||
000000000000000000000000000000000000000000300000,
|
||
000000000000000000100000100000000000100000100000,
|
||
000000100000100000100000000000000000000000000000,
|
||
000000000000100000000000100000000000100000000000,
|
||
300000300000000000300000000000400000000000900000,
|
||
,
|
||
,
|
||
8,
|
||
000000000000000000000000000000200200200000700000,
|
||
,
|
||
,
|
||
8,
|
||
000000000000000000000000000000200200200000900000,
|
||
,
|
||
,
|
||
8,
|
||
000000000000000000000000000000200200200000700000,
|
||
,
|
||
,
|
||
800000000000300000000000300000000000300000000000,
|
||
300000300000000000500000000000000000000000000000,
|
||
000000000000000000000000800000000000000000000000,
|
||
#GOGOEND
|
||
400000000000000000000000000000000000000000000000,
|
||
|
||
|
||
#END
|
||
|
||
|
||
COURSE:Easy
|
||
LEVEL:3
|
||
BALLOON:13,13,13,13,13,13
|
||
SCOREINIT:540
|
||
SCOREDIFF:163
|
||
|
||
|
||
#START
|
||
|
||
|
||
000000000000000000000000000000000000000000000000,
|
||
000000000000000000000000000000000000000000000000,
|
||
300000000000000000000000000000000000000000100000,
|
||
000000100000000000500000000000000000000000000000,
|
||
000000000000000000000000800000000000000000000000,
|
||
000000000000100000000000000000000000100000000000,
|
||
000000000000100000000000100000000000100000000000,
|
||
000000000000300000000000000000000000300000000000,
|
||
000000000000300000000000000000000000300000000000,
|
||
000000000000100000000000000000000000100000000000,
|
||
000000000000100000000000100000000000100000000000,
|
||
000000000000300000000000000000000000300000000000,
|
||
000000000000300000000000000000000000300000000000,
|
||
000000000000100000000000000000000000100000000000,
|
||
000000000000100000000000100000000000100000000000,
|
||
000000000000300000000000000000000000300000000000,
|
||
000000000000300000000000000000000000300000000000,
|
||
000000000000200000000000000000000000200000000000,
|
||
000000000000200000000000200000000000200000000000,
|
||
000000000000300000000000000000000000300000000000,
|
||
000000000000300000000000000000000000300000900000,
|
||
,
|
||
,
|
||
8,
|
||
000000000000000000000000000000000000000000900000,
|
||
,
|
||
,
|
||
8,
|
||
,
|
||
000000000000100000000000000000000000100000000000,
|
||
000000000000100000000000100000000000100000000000,
|
||
000000000000300000000000000000000000300000000000,
|
||
000000000000300000000000000000000000300000000000,
|
||
000000000000100000000000000000000000100000000000,
|
||
000000000000100000000000100000000000100000000000,
|
||
000000000000300000000000000000000000300000000000,
|
||
000000000000300000000000000000000000300000000000,
|
||
000000000000100000000000000000000000100000000000,
|
||
000000000000100000000000100000000000100000000000,
|
||
000000000000300000000000000000000000300000000000,
|
||
000000000000300000000000000000000000300000000000,
|
||
000000000000200000000000000000000000200000000000,
|
||
000000000000200000000000200000000000200000000000,
|
||
000000000000300000000000000000000000300000000000,
|
||
000000000000300000000000000000000000300000000000,
|
||
000000000000200000000000200000000000000000000000,
|
||
200000000000200000000000200000000000000000000000,
|
||
100000000000100000000000100000000000000000000000,
|
||
100000000000100000000000100000000000100000000000,
|
||
000000000000200000000000200000000000000000000000,
|
||
200000000000200000000000200000000000000000000000,
|
||
100000000000200000000000100000000000200000000000,
|
||
100000000000200000000000500000000000000000000000,
|
||
000000800000000000000000000000000000000000300000,
|
||
#GOGOSTART
|
||
000000000000100000000000100000000000000000300000,
|
||
000000000000100000000000000000000000000000300000,
|
||
000000000000100000000000100000000000000000300000,
|
||
000000000000000000000000000000000000000000300000,
|
||
000000000000100000000000100000000000000000300000,
|
||
000000000000100000000000000000000000000000000000,
|
||
000000000000100000000000100000000000000000400000,
|
||
000000400000000000400000000000000000000000300000,
|
||
000000000000100000000000100000000000000000300000,
|
||
000000000000100000000000000000000000000000300000,
|
||
000000000000100000000000100000000000000000300000,
|
||
000000000000000000000000000000000000000000300000,
|
||
000000000000100000000000100000000000000000300000,
|
||
000000000000100000000000000000000000000000000000,
|
||
000000000000100000000000100000000000100000000000,
|
||
300000000000000000300000000000000000000000900000,
|
||
,
|
||
,
|
||
8,
|
||
000000000000000000000000000000200200200000700000,
|
||
,
|
||
,
|
||
8,
|
||
000000000000000000000000000000200200200000900000,
|
||
,
|
||
,
|
||
8,
|
||
000000000000000000000000000000200200200000700000,
|
||
,
|
||
,
|
||
800000000000300000000000300000000000300000000000,
|
||
300000000000000000500000000000000000000000000000,
|
||
000000000000000000000000800000000000000000000000,
|
||
#GOGOEND
|
||
400000000000000000000000000000000000000000000000,
|
||
|
||
|
||
#END
|
||
|