686 lines
17 KiB
Plaintext
686 lines
17 KiB
Plaintext
//TJADB Project
|
|
TITLE:Lovely-X
|
|
TITLEJA:ラブリーX
|
|
SUBTITLE:--Yuri Misumi feat. Yoshihito Yano/NEW RALLY-X
|
|
BPM:134
|
|
WAVE:Lovely-X.ogg
|
|
OFFSET:-2.146
|
|
DEMOSTART:34.375
|
|
|
|
COURSE:Edit
|
|
LEVEL:8
|
|
SCOREINIT:410
|
|
SCOREDIFF:110
|
|
|
|
|
|
#START
|
|
|
|
|
|
000000000000000000000000100100200000200000000000,
|
|
100000000000100000000000100000000000200000200000,
|
|
100000100000200000100000200200100000200200100000,
|
|
100000000000100000000000100000001010200000200000,
|
|
100000100000100000200000300000400000400000000000,
|
|
100000000000100000000000100000200200100000200000,
|
|
100000100000200000200000100000100000200000200000,
|
|
100000100000200000200000100000300000300000200000,
|
|
100000100000200000200000100000100000200000200000,
|
|
100000100000200000200000100100200000200200200000,
|
|
100000100000200200100200100000100000200000200000,
|
|
100000100000200200100200100000100000200100200000,
|
|
100000100000200200100200100000100000200100200000,
|
|
100100200000200200000200100100000100200100200000,
|
|
100000100000200200100200100000100000200100200000,
|
|
100000100000200200100200100000100000200100200000,
|
|
100000100000200200100200100000100000200100200000,
|
|
100200200000100200000200100200100200100100200000,
|
|
|
|
#GOGOSTART
|
|
100000200000100000200200100000202020100000200000,
|
|
100000200000100000200200100100000200100000200000,
|
|
100000200000100000200200100000202020100000200000,
|
|
100100100100200000100000100200000000200000100100,
|
|
100000200000100000200200100000202020100000200000,
|
|
100000200000100000200200100000202020100100200000,
|
|
100000200000100000200200100000202020100000200000,
|
|
100100100100200000200200100100202020100100200100,
|
|
100000100000200000200000100000100000200000000000,
|
|
100100200200100100200200100100200200100100200200,
|
|
100000100000200000200000100000100000200000200000,
|
|
100200200000100200200100100000100000100200200000,
|
|
|
|
#GOGOEND
|
|
300000000000100000200000100000000000100000200000,
|
|
100000100000100000200000100000100000100000200000,
|
|
100000100000200000200000100000100000200000200000,
|
|
100000100000200000200000100200000200100100100000,
|
|
400000200100100000200000100000100000200000200000,
|
|
100000100000200000100000100000200200200000200000,
|
|
100000200200100000100000200000200000100000100000,
|
|
100100200200100000100000100200000200100000200000,
|
|
100000100200200000100000100000200200100000200000,
|
|
100000100200200000100000100000100200100000200000,
|
|
100000100200200000100000100000200200100000200000,
|
|
100000200200100000200000000000100000200000000000,
|
|
100100000200100000100100000200100000200000100000,
|
|
400000000000200000000000000000000000200000000000,
|
|
000000000000200000000000000000300000300000000000,
|
|
100000100000200000200000100000100000200000200000,
|
|
100000100000200000200000100000400000400000400000,
|
|
100000100000200200100200100000100000200100200000,
|
|
100000100000200200100200100000100000200100200000,
|
|
100000100000200200100200100000100000200100200000,
|
|
100100200000200200000200100100000100200100200000,
|
|
100000100000200200100200100000100000200100200000,
|
|
100000100000200200100200100000100000200100200000,
|
|
100000100000200200100200100000100000200100200000,
|
|
100200200000100200000200100200100200100100200000,
|
|
|
|
#GOGOSTART
|
|
100100200000200200100200100100200000200100200000,
|
|
100100200000200200100200100100200000200100200000,
|
|
100100200000200200100200100100200000200100200000,
|
|
100100200000200200000200100100200100200000200000,
|
|
100100200000200200100200100100200000200100000200,
|
|
100100200000200200100200100100200000100200000200,
|
|
100100200000200200100200100100200000100200000200,
|
|
100200200000100200100200100200100200100100200000,
|
|
300000000000300000000000300000002020200000200000,
|
|
100000200000100000200000100100200100200200100000,
|
|
400000300000300000000100100100200100000000400000,
|
|
000000000000000000000000000000300000000000000000,
|
|
|
|
#GOGOEND
|
|
|
|
|
|
#END
|
|
|
|
|
|
COURSE:Oni
|
|
LEVEL:7
|
|
SCOREINIT:600
|
|
SCOREDIFF:160
|
|
|
|
|
|
#START
|
|
|
|
|
|
,
|
|
,
|
|
,
|
|
100000000000100000000000100000200200200000200000,
|
|
100000100000100000200000000000100000100000000000,
|
|
100000000000100000000000100000100100100000100000,
|
|
300000000000000000000000000000000000000000000000,
|
|
000000000000000000000000000000100000100000000000,
|
|
100000100000100000200000100000100000100000200000,
|
|
100000100000100000200000100000000000000000000000,
|
|
100000100100100000200000100000100000200000000000,
|
|
100000100100100000200000100000100100100000000000,
|
|
100000100100100000200000100100000100100000100000,
|
|
100000200200200000200000100000100100100000200000,
|
|
100000100100100000200000100000100000200000000000,
|
|
100000100100100000200000100000100100100000000000,
|
|
100000100100100000200000100100000100100000100000,
|
|
100000200200200000200000100000100100100000200200,
|
|
|
|
#GOGOSTART
|
|
100000000000100000200000100000100100100000200000,
|
|
100100000100100000200000100000200200200000200000,
|
|
100100000100100000200000100000200200200000200000,
|
|
500000000000000000000008000000200200200000200000,
|
|
100000000000100000200000100000100100100000200000,
|
|
100100000100100000200000100000200200200000200000,
|
|
100000100000100000200200100000200200100000000000,
|
|
500000000000000000000008000000200200200000200000,
|
|
100000100100100000200000100100100000200000000000,
|
|
100000100100100000200000100100100000200000000000,
|
|
100000100100100000200000100100100000200000000000,
|
|
100000100100100000200000100000100000100000000000,
|
|
|
|
#GOGOEND
|
|
100000000000200000000000100000100000200000100000,
|
|
100000100000100000200200100000100000100000200000,
|
|
100000000000200000000000100000100000200000100000,
|
|
100000000000200000000000100100000100100100100000,
|
|
100000000000000000000000100000100000000000000000,
|
|
100000100100100000100000100000200200200000200000,
|
|
100000000000000000000000100000100000000000000000,
|
|
100200100100100000100000200200000200200000200000,
|
|
100000200200200000200000100100000200100000200000,
|
|
100000200200200000200000100100000200100000200000,
|
|
100000200200200000200000100100000200100000200000,
|
|
100000200000200000100000200000200000100000200000,
|
|
200200000200200000200200000200200000200200200000,
|
|
000000000000000000000000000000000000000000000000,
|
|
000000000000000000000000000000100000100000000000,
|
|
100000100100100000200000100100000100100000200000,
|
|
100000100100100000200200100000000000000000000000,
|
|
100000100100100000200000100100000100100000200000,
|
|
100000100100100000200000100000100000200000000000,
|
|
100000100100100000200000100100000100100000200000,
|
|
100000200200200000200000100100000100100000100000,
|
|
100000100100100000200000100100000100100000200000,
|
|
100000100100100000200000100000100000200000000000,
|
|
100000100100100000200000100100000100100000200000,
|
|
100000200200200000200000100000100100100000200200,
|
|
|
|
#GOGOSTART
|
|
100000100100100000200000100100000100100000200000,
|
|
100000100100100000200000100000100000200000000000,
|
|
100000100100100000200000100100000100100000200000,
|
|
100000200200200000200000100100000100100000100000,
|
|
100000100100100000200000100100000100100000200000,
|
|
100000100100100000200000100000100000200000000000,
|
|
100000100100100000200000100100000100100000200000,
|
|
100000200200200000200000100000100100100000200200,
|
|
100000000000100000000000100000200200200000200000,
|
|
000000000000000000000000100100100200100100100200,
|
|
100000100100100000000000100000100000000000300000,
|
|
|
|
#GOGOEND
|
|
|
|
|
|
#END
|
|
|
|
|
|
COURSE:Hard
|
|
LEVEL:6
|
|
BALLOON:16,16
|
|
SCOREINIT:580
|
|
SCOREDIFF:165
|
|
|
|
|
|
#START
|
|
|
|
|
|
,
|
|
,
|
|
,
|
|
3000300030222020,
|
|
1000101000404000,
|
|
3000300030222020,
|
|
|
|
#SECTION
|
|
#BRANCHSTART p,75,90
|
|
#N
|
|
3,
|
|
|
|
#E
|
|
3,
|
|
|
|
#M
|
|
3,
|
|
|
|
#SECTION
|
|
#BRANCHSTART p,75,90
|
|
#N
|
|
00000220,
|
|
11121010,
|
|
11121000,
|
|
11121020,
|
|
11121020,
|
|
11121010,
|
|
1022200010001000,
|
|
|
|
#E
|
|
00000220,
|
|
11121010,
|
|
11121000,
|
|
11121120,
|
|
11121020,
|
|
11121110,
|
|
1022202010001000,
|
|
|
|
#M
|
|
00000220,
|
|
11121112,
|
|
11121000,
|
|
11121120,
|
|
11121020,
|
|
11121112,
|
|
1022202010001000,
|
|
|
|
#SECTION
|
|
#BRANCHSTART p,75,90
|
|
#N
|
|
11121020,
|
|
11121020,
|
|
11121010,
|
|
1022200010001000,
|
|
|
|
#E
|
|
11121120,
|
|
11121020,
|
|
11121110,
|
|
1022202010001000,
|
|
|
|
#M
|
|
11121120,
|
|
11121020,
|
|
11121112,
|
|
11022202010001000,
|
|
|
|
#SECTION
|
|
#BRANCHSTART p,75,90
|
|
#N
|
|
#GOGOSTART
|
|
30121110,
|
|
1000100010222000,
|
|
11201020,
|
|
300000000000100000100000500000000008000000000000,
|
|
|
|
#E
|
|
#GOGOSTART
|
|
30121112,
|
|
1000100010222000,
|
|
11201120,
|
|
300000000000100000100000500000000008000000000000,
|
|
|
|
#M
|
|
#GOGOSTART
|
|
30121112,
|
|
1000101010222020,
|
|
11201120,
|
|
300000000000100000100000500000000008000000000000,
|
|
|
|
#SECTION
|
|
#BRANCHSTART p,75,90
|
|
#N
|
|
10121110,
|
|
1000100010222000,
|
|
11201020,
|
|
300000000000300000300000600000000008000000000000,
|
|
|
|
#E
|
|
10121112,
|
|
1000100010222000,
|
|
11201120,
|
|
300000000000300000300000600000000008000000000000,
|
|
|
|
#M
|
|
10121112,
|
|
1000101010222020,
|
|
11201120,
|
|
300000000000300000300000600000000008000000000000,
|
|
|
|
#SECTION
|
|
#BRANCHSTART p,75,90
|
|
#N
|
|
11121020,
|
|
11121020,
|
|
11121020,
|
|
1011100030003000,
|
|
|
|
#E
|
|
11121020,
|
|
11121020,
|
|
11121120,
|
|
1011100030003000,
|
|
|
|
#M
|
|
11121020,
|
|
11121020,
|
|
11121120,
|
|
1011100030003000,
|
|
|
|
#SECTION
|
|
#BRANCHSTART p,75,90
|
|
#N
|
|
#GOGOEND
|
|
,
|
|
10121012,
|
|
10201120,
|
|
10001020,
|
|
|
|
#E
|
|
#GOGOEND
|
|
,
|
|
10121012,
|
|
10201120,
|
|
10001020,
|
|
|
|
#M
|
|
#GOGOEND
|
|
,
|
|
11121112,
|
|
10201120,
|
|
10001020,
|
|
|
|
#SECTION
|
|
#BRANCHSTART p,75,90
|
|
#N
|
|
10001100,
|
|
1010001010222000,
|
|
10001100,
|
|
1010001022022000,
|
|
11011020,
|
|
11011020,
|
|
1212,
|
|
30210210,
|
|
700000000000000000000000000000000000000000000008,
|
|
|
|
#E
|
|
10001100,
|
|
1010001010222000,
|
|
10001100,
|
|
1010001022022000,
|
|
1022200011011000,
|
|
1022200011011000,
|
|
1022200011011000,
|
|
32232232,
|
|
700000000000000000000000000000000000000000000008,
|
|
|
|
#M
|
|
10001100,
|
|
1010001010222020,
|
|
10001100,
|
|
1010001022022020,
|
|
1022202011011000,
|
|
1022202011011000,
|
|
1022202011011000,
|
|
32232232,
|
|
2202202202204000,
|
|
|
|
#SECTION
|
|
#BRANCHSTART p,75,90
|
|
#N
|
|
,
|
|
00000220,
|
|
11121010,
|
|
11121000,
|
|
11121020,
|
|
11121020,
|
|
11121020,
|
|
1022200010001000,
|
|
|
|
#E
|
|
,
|
|
00000220,
|
|
11121010,
|
|
11121000,
|
|
11121120,
|
|
11121020,
|
|
11121120,
|
|
1022200010001000,
|
|
|
|
#M
|
|
,
|
|
00000220,
|
|
11121112,
|
|
11121000,
|
|
11121120,
|
|
1011102010002000,
|
|
11121120,
|
|
1022202010001000,
|
|
|
|
#SECTION
|
|
#BRANCHSTART p,75,90
|
|
#N
|
|
11121020,
|
|
11121020,
|
|
11121020,
|
|
1022200030003000,
|
|
|
|
#E
|
|
11121120,
|
|
11121020,
|
|
11121120,
|
|
1022200030003000,
|
|
|
|
#M
|
|
11121120,
|
|
1011102010002000,
|
|
11121120,
|
|
1022202030003000,
|
|
|
|
#SECTION
|
|
#BRANCHSTART p,75,90
|
|
#N
|
|
#GOGOSTART
|
|
11121020,
|
|
1011102010002000,
|
|
11121020,
|
|
1022200010101000,
|
|
|
|
#E
|
|
#GOGOSTART
|
|
11121120,
|
|
1011102010002000,
|
|
11121120,
|
|
1022200010101000,
|
|
|
|
#M
|
|
#GOGOSTART
|
|
11121120,
|
|
1011102010102000,
|
|
11121121,
|
|
1022202010101000,
|
|
|
|
#SECTION
|
|
#BRANCHSTART p,75,90
|
|
#N
|
|
11121020,
|
|
1011102010002000,
|
|
11121120,
|
|
1022200010101000,
|
|
|
|
#E
|
|
11121120,
|
|
1011102010102000,
|
|
11121120,
|
|
1022200010101000,
|
|
|
|
#M
|
|
11121121,
|
|
1011102010102000,
|
|
11121121,
|
|
1022200010101000,
|
|
|
|
#SECTION
|
|
#BRANCHSTART p,75,90
|
|
#N
|
|
3000300030222000,
|
|
100000000000100000500000000000000008000000000000,
|
|
33302206,
|
|
000000000000000008000000000003000000000000000000,
|
|
|
|
#E
|
|
3000300030222000,
|
|
100000000000100000500000000000000008000000000000,
|
|
33302206,
|
|
000000000000000008000000000003000000000000000000,
|
|
|
|
#M
|
|
3000300030222020,
|
|
100000000000100000500000000000000008000000000000,
|
|
33302206,
|
|
000000000000000008000000000003000000000000000000,
|
|
|
|
#BRANCHEND
|
|
#GOGOEND
|
|
|
|
|
|
#END
|
|
|
|
|
|
COURSE:Normal
|
|
LEVEL:5
|
|
BALLOON:8
|
|
SCOREINIT:770
|
|
SCOREDIFF:243
|
|
|
|
|
|
#START
|
|
|
|
|
|
,
|
|
,
|
|
,
|
|
100000000000100000000000100000000000000000000000,
|
|
100000000000100000100000000000000000000000000000,
|
|
100000000000100000000000100000000000000000000000,
|
|
300000000000000000000000100000100000100000000000,
|
|
100000000000000000000000000000200000200000000000,
|
|
300000000000000000000000100000100000100000000000,
|
|
100000000000000000000000000000000000000000000000,
|
|
100000000000200000000000100000100000200000000000,
|
|
100000000000200000000000100000000000200000000000,
|
|
100000000000200000000000100000100000200000000000,
|
|
500000000000000000000000000000000800000000000000,
|
|
100000000000200000000000100000100000200000000000,
|
|
100000000000200000000000100000000000200000000000,
|
|
100000000000200000000000100000100000200000000000,
|
|
300000000000000000000000000000000000000000000000,
|
|
|
|
#GOGOSTART
|
|
100000000000200000200000100000000000200000000000,
|
|
100000000000100000100000100000000000000000000000,
|
|
100000000000200000200000100000000000200000200000,
|
|
500000000000000000000000000000000800000000000000,
|
|
100000000000200000200000100000000000200000000000,
|
|
100000000000100000100000100000000000000000000000,
|
|
100000000000200000200000100000000000200000000000,
|
|
500000000000000000000000000000000800000000000000,
|
|
100000000000200000000000100000100000200000000000,
|
|
100000000000200000000000100000100000100000000000,
|
|
100000000000200000000000100000100000200000000000,
|
|
500000000000000000000000000000000800000000000000,
|
|
|
|
#GOGOEND
|
|
000000000000000000000000000000000000000000000000,
|
|
100000000000200000000000100000100000200000000000,
|
|
100000000000200000000000100000100000200000000000,
|
|
100000000000000000000000100000000000100000000000,
|
|
300000000000000000000000300000300000000000000000,
|
|
100000000000200000200000200000000000000000000000,
|
|
300000000000000000000000300000300000000000000000,
|
|
100000000000200000200000200000000000000000000000,
|
|
100000100000000000200000200000000000000000000000,
|
|
100000100000000000200000200000000000000000000000,
|
|
100000000000100000000000400000000000400000000000,
|
|
700000000000000000000000000000000000000000000800,
|
|
000000000000000000000000000000000000000000000000,
|
|
300000000000000000000000100000100000100000000000,
|
|
100000000000000000000000000000200000200000000000,
|
|
300000000000000000000000100000100000100000000000,
|
|
100000000000000000000000000000000000000000000000,
|
|
100000000000200000000000100000100000200000000000,
|
|
100000000000200000000000100000000000200000000000,
|
|
100000000000200000000000100000100000200000000000,
|
|
500000000000000000000000000000000800000000000000,
|
|
100000000000200000000000100000100000200000000000,
|
|
100000000000200000000000100000000000200000000000,
|
|
100000000000200000000000100000100000200000000000,
|
|
300000000000000000000000000000000000000000000000,
|
|
|
|
#GOGOSTART
|
|
100000000000200000000000100000100000200000000000,
|
|
100000000000200000000000200000200000100000000000,
|
|
100000000000200000000000100000100000200000000000,
|
|
500000000000000000000000000000000800000000000000,
|
|
100000000000200000000000100000100000200000000000,
|
|
100000000000200000000000200000200000100000000000,
|
|
100000000000200000000000100000100000200000000000,
|
|
300000000000000000000000000000000000000000000000,
|
|
300000000000300000000000300000000000000000000000,
|
|
000000000000000000000000000000200000200000000000,
|
|
300000300000300000000000400000400000000000600000,
|
|
000000000000000000000000000000000000000008000000,
|
|
|
|
#GOGOEND
|
|
|
|
|
|
#END
|
|
|
|
|
|
COURSE:Easy
|
|
LEVEL:4
|
|
BALLOON:6
|
|
SCOREINIT:690
|
|
SCOREDIFF:263
|
|
|
|
|
|
#START
|
|
|
|
|
|
,
|
|
,
|
|
,
|
|
100000000000100000000000100000000000000000000000,
|
|
100000000000000000000000000000000000000000000000,
|
|
100000000000100000000000100000000000000000000000,
|
|
300000000000000000000000000000000000000000000000,
|
|
100000000000000000000000000000200000200000000000,
|
|
300000000000000000000000000000000000000000000000,
|
|
100000000000000000000000000000000000000000000000,
|
|
100000000000100000000000100000000000000000000000,
|
|
100000000000000000000000100000000000200000000000,
|
|
100000000000100000000000100000000000000000000000,
|
|
500000000000000000000000000800000000000000000000,
|
|
100000000000100000000000100000000000000000000000,
|
|
100000000000000000000000100000000000200000000000,
|
|
100000000000100000000000100000000000000000000000,
|
|
300000000000000000000000000000000000000000000000,
|
|
|
|
#GOGOSTART
|
|
100000000000200000000000100000000000200000000000,
|
|
100000000000100000000000100000000000000000000000,
|
|
100000000000200000000000100000000000200000000000,
|
|
500000000000000000000000000800000000000000000000,
|
|
100000000000200000000000100000000000200000000000,
|
|
100000000000100000000000100000000000000000000000,
|
|
100000000000200000000000100000000000200000000000,
|
|
500000000000000000000000000800000000000000000000,
|
|
100000000000000000000000100000000000200000000000,
|
|
100000000000000000000000100000000000200000000000,
|
|
100000000000000000000000100000000000200000000000,
|
|
500000000000000000000000000000000800000000000000,
|
|
|
|
#GOGOEND
|
|
000000000000000000000000000000000000000000000000,
|
|
100000000000000000000000100000000000100000000000,
|
|
100000000000000000000000000000000000100000000000,
|
|
100000000000000000000000000000000000000000000000,
|
|
300000000000000000000000300000300000000000000000,
|
|
100000000000100000000000100000000000000000000000,
|
|
300000000000000000000000300000300000000000000000,
|
|
100000000000100000000000100000000000000000000000,
|
|
100000000000000000000000100000000000200000000000,
|
|
100000000000000000000000100000000000200000000000,
|
|
100000000000000000000000100000000000100000000000,
|
|
700000000000000000000000000000000000000000000800,
|
|
000000000000000000000000000000000000000000000000,
|
|
300000000000000000000000000000000000000000000000,
|
|
100000000000000000000000000000200000200000000000,
|
|
300000000000000000000000000000000000000000000000,
|
|
100000000000000000000000000000000000000000000000,
|
|
100000000000100000000000100000000000000000000000,
|
|
100000000000000000000000100000000000200000000000,
|
|
100000000000100000000000100000000000000000000000,
|
|
500000000000000000000000000800000000000000000000,
|
|
100000000000100000000000100000000000000000000000,
|
|
100000000000000000000000100000000000200000000000,
|
|
100000000000100000000000100000000000000000000000,
|
|
300000000000000000000000000000000000000000000000,
|
|
|
|
#GOGOSTART
|
|
100000000000200000000000100000000000200000000000,
|
|
100000000000000000000000100000000000200000000000,
|
|
100000000000200000000000100000000000200000000000,
|
|
500000000000000000000000000800000000000000000000,
|
|
100000000000200000000000100000000000000000000000,
|
|
100000000000200000000000100000000000200000000000,
|
|
100000000000200000000000100000000000000000000000,
|
|
300000000000000000000000000000000000000000000000,
|
|
300000000000300000000000300000000000000000000000,
|
|
000000000000000000000000000000200000200000000000,
|
|
300000000000300000000000000000000000000000600000,
|
|
000000000000000000000000000000000000000008000000,
|
|
|
|
#GOGOEND
|
|
|
|
|
|
#END
|
|
|