Files
ESE/07 Game Music/Maji de...!/Maji de...!.tja
T
2023-06-15 19:05:10 -05:00

899 lines
9.6 KiB
Plaintext
Raw Blame History

This file contains ambiguous Unicode characters
This file contains Unicode characters that might be confused with other characters. If you think that this is intentional, you can safely ignore this warning. Use the Escape button to reveal them.
//TJADB Project
TITLE:Maji de...⁉
TITLEJA:FIXME
SUBTITLE:--Takafumi Sato feat. 765PRO ALLSTARS/THE iDOLM@STER MUST SONGS: Blue Album
BPM:140
WAVE:Maji de...!.ogg
OFFSET:-1.871
DEMOSTART:57.147
COURSE:Oni
LEVEL:8
BALLOON:13,13
SCOREINIT:500
SCOREDIFF:133
#START
#BARLINEOFF
#MEASURE 1/4
#SCROLL 3
3,
#BARLINEON
#MEASURE 4/4
#SCROLL 1
2020202020220010,
2020202020222020,
2020202020220010,
2222,
500000000000000000000000000008000000000000100000,
#BARLINEOFF
#SCROLL 3
4,
#GOGOSTART
#BARLINEON
#SCROLL 1
03030303,
03030444,
03030303,
43434343,
03030303,
03030444,
03030303,
#GOGOEND
2222,
#GOGOSTART
11111030
#GOGOEND
00112010,
2002002011010000,
#GOGOSTART
11111030
#GOGOEND
00112010,
2002002011010000,
#GOGOSTART
22222030
#GOGOEND
00112010,
2002002011010000,
#GOGOSTART
22222030
#GOGOEND
00112010,
2002002020003000,
1011201010112010,
1011201010222010,
1011201010112010,
1011201010222010,
1010101010111010,
1010101010111010,
#SCROLL 1.5
11111110
#SCROLL 2
11111110,
#SCROLL 3
2222111122221110,
#BARLINEOFF
,
#BARLINEON
7008,
#GOGOSTART
#SCROLL 1
10221022102100
#SCROLL 3
30,
#SCROLL 1
20221022102100
#SCROLL 3
40,
#SCROLL 1
1022201010222010,
1122112211221120,
10221022102100
#SCROLL 3
30,
#SCROLL 1
20221022102100
#SCROLL 3
40,
#SCROLL 1
33044400,
#GOGOEND
#SCROLL 2
500008000000500008000000500008000000
#GOGOSTART
#SCROLL 4
400000000000,
#SCROLL 1
10221022102100
#SCROLL 3
30,
#SCROLL 1
20221022102100
#SCROLL 3
40,
#SCROLL 1
1022201010222010,
1122112211221120,
10221021102100
#SCROLL 3
30,
#SCROLL 1
20221021102100
#SCROLL 3
40,
#SCROLL 1
33044400,
#GOGOEND
#SCROLL 2
500008000000500008000000500008000000
#GOGOSTART
#SCROLL 4
400000000000,
#GOGOEND
#SCROLL 2
500008000000500008000000500008000000
#GOGOSTART
#SCROLL 4
400000000000,
#SCROLL 2
#GOGOEND
300000300000000000000000500000000008000000300000,
3
#GOGOSTART
#SCROLL 4
4,
#SCROLL 1
#GOGOEND
2022202220202020,
1022102110221020,
2022202220202020,
2000100000200200,
#GOGOSTART
03030303,
03030444,
03030303,
1122112211221120,
#GOGOEND
1111101020222220,
#SCROLL 3
7008,
#GOGOSTART
#SCROLL 1
10112012201200
#SCROLL 3
30,
#SCROLL 1
20221021102100
#SCROLL 3
40,
#SCROLL 1
1022201010222010,
1122112211221120,
10112012201200
#SCROLL 3
30,
#SCROLL 1
20221021102100
#SCROLL 3
40,
#SCROLL 1
33044400,
#GOGOEND
#SCROLL 2
500008000000500008000000500008000000
#GOGOSTART
#SCROLL 4
400000000000,
#GOGOEND
#SCROLL 2
500008000000500008000000500008000000
#GOGOSTART
#SCROLL 4
400000000000,
#GOGOEND
#SCROLL 2
300000300000000000000000500000000008000000300000,
3
#GOGOSTART
#SCROLL 4
4,
#GOGOEND
#END
COURSE:Hard
LEVEL:6
BALLOON:13,13
SCOREINIT:490
SCOREDIFF:140
#START
#MEASURE 1/4
#SCROLL 3
#BARLINEOFF
,
#MEASURE 4/4
#SCROLL 1
#BARLINEON
0202,
0000200000222020,
0202,
1111,
500000000000000000000000000008000000000000000000,
#BARLINEOFF
#SCROLL 2
4,//7
#BARLINEON
#SCROLL 1
#GOGOSTART
03030303,
03030444,
03030303,
43434343,
03030303,
03030444,
03030304,//14
#GOGOEND
,//15
#GOGOSTART
10111000//16
#GOGOEND
00000000,
1001001011010000,//17
#GOGOSTART
10111000//18
#GOGOEND
00000000,
1001001011010000,//19
#GOGOSTART
22022000//20
#GOGOEND
00000000,
2002002022020000,//21
#GOGOSTART
22022000//22
#GOGOEND
00000000,
2002002020003000,
10201120,
10201220,
10201120,
10201220,
11111111,
11111111,
1110111011103000,
#SCROLL 2
600000000000000000000000000000000000000000000008,
#BARLINEOFF
,
#SCROLL 3
#BARLINEON
7008,//33
#SCROLL 1
#GOGOSTART
11101010200200
#SCROLL 2
30,
#SCROLL 1
00222020100100
#SCROLL 2
40,
#SCROLL 1
1110100022202000,
3344,
11101010200200
#SCROLL 2
30,
#SCROLL 1
00222020100100
#SCROLL 2
40,
#SCROLL 1
11022200,//40
#GOGOEND
500008000000500008000000500008000000//41
#SCROLL 2
#GOGOSTART
400000000000,
#SCROLL 1
10111010200200
#SCROLL 2
30,
#SCROLL 1
00222020100100
#SCROLL 2
40,
#SCROLL 1
1110100022202000,
3344,
11101010200200
#SCROLL 2
30,
#SCROLL 1
00222020100100
#SCROLL 2
40,
#SCROLL 1
11022200,//48
#GOGOEND
500008000000500008000000500008000000//49-1
#SCROLL 2
#GOGOSTART
400000000000,//49-2
#SCROLL 1
#GOGOEND
500008000000500008000000500008000000//50-1
#SCROLL 2
#GOGOSTART
400000000000,//50-2
#SCROLL 1
#GOGOEND
5,
000008000000000000000000//52-1
#SCROLL 2
#GOGOSTART
400000000000000000000000,//52-2
#SCROLL 1
#GOGOEND
00200220,
00200220,
00200220,
2000200000200200,//56
#GOGOSTART
03030303,
03030444,
03030303,
43434343,//60
#GOGOEND
,
#SCROLL 3
7008,//62
#SCROLL 1
#GOGOSTART
11101010200200
#SCROLL 2
30,
#SCROLL 1
00222020100100
#SCROLL 2
40,
#SCROLL 1
1110100022202000,
3344,
11101010200200
#SCROLL 2
30,
#SCROLL 1
00222020100100
#SCROLL 2
40,
#SCROLL 1
11022200,//69
#GOGOEND
500008000000500008000000500008000000//70-1
#SCROLL 2
#GOGOSTART
400000000000,//70-2
#SCROLL 1
#GOGOEND
500008000000500008000000500008000000//71-1
#SCROLL 2
#GOGOSTART
400000000000,//71-2
#SCROLL 1
#GOGOEND
6,
000008000000000000000000//73-1
#SCROLL 3
#GOGOSTART
400000000000000000000000,//73-2
#BARLINEOFF
#SCROLL 1
#GOGOEND
,
#END
COURSE:Normal
LEVEL:5
BALLOON:8,8
#START
#MEASURE 1/4
#SCROLL 3
#BARLINEOFF
,
#MEASURE 4/4
#SCROLL 1
#BARLINEON
,
,
,
1111,
500000000000000000000000000008000000000000000000,
#SCROLL 2
#BARLINEOFF
4,//7
#BARLINEON
#SCROLL 1
#GOGOSTART
03030303,
03030444,
03030303,
4444,
03030303,
03030444,
03030304,//14
#GOGOEND
,//15
#GOGOSTART
11//16
#GOGOEND
00,
11,//17
#GOGOSTART
11//18
#GOGOEND
00,
11,//19
#GOGOSTART
22//20
#GOGOEND
00,
22,//21
#GOGOSTART
22//22
#GOGOEND
00,
2021,
10101110,
10102220,
10101110,
20202220,
11101110,
22202220,
11111130,
#SCROLL 2
600000000000000000000000000000000000000000000008,
#BARLINEOFF
,
#BARLINEON
9009,//33
#SCROLL 1
#GOGOSTART
8000000
#SCROLL 2
3,
#SCROLL 1
0000000
#SCROLL 2
4,
#SCROLL 1
,
3344,
0000000
#SCROLL 2
3,
#SCROLL 1
0000000
#SCROLL 2
4,
#SCROLL 1
,//40
#GOGOEND
500008000000500008000000500008000000//41
#SCROLL 2
#GOGOSTART
400000000000,
#SCROLL 1
0000000
#SCROLL 2
3,
#SCROLL 1
0000000
#SCROLL 2
4,
#SCROLL 1
,
3344,
0000000
#SCROLL 2
3,
#SCROLL 1
0000000
#SCROLL 2
4,
#SCROLL 1
,//48
#GOGOEND
500008000000500008000000500008000000//49-1
#SCROLL 2
#GOGOSTART
400000000000,//49-2
#SCROLL 1
#GOGOEND
500008000000500008000000500008000000//50-1
#SCROLL 2
#GOGOSTART
400000000000,//50-2
#SCROLL 1
#GOGOEND
5,
000008000000000000000000//52-1
#SCROLL 2
#GOGOSTART
400000000000000000000000,//52-2
#SCROLL 1
#GOGOEND
,
,
,
,//56
#GOGOSTART
03030303,
03030444,
03030303,
4444,//60
#GOGOEND
,
#SCROLL 2
9009,//62
#SCROLL 1
#GOGOSTART
8000000
#SCROLL 2
3,
#SCROLL 1
0000000
#SCROLL 2
4,
#SCROLL 1
,
3344,
0000000
#SCROLL 2
3,
#SCROLL 1
0000000
#SCROLL 2
4,
#SCROLL 1
,//69
#GOGOEND
500008000000500008000000500008000000//70-1
#SCROLL 2
#GOGOSTART
400000000000,//70-2
#SCROLL 1
#GOGOEND
500008000000500008000000500008000000//71-1
#SCROLL 2
#GOGOSTART
400000000000,//71-2
#SCROLL 1
#GOGOEND
6,
000008000000000000000000//73-1
#SCROLL 3
#GOGOSTART
400000000000000000000000,//73-2
#BARLINEOFF
#SCROLL 1
#GOGOEND
,
#END
COURSE:Easy
LEVEL:3
BALLOON:7,7,7
#START
#MEASURE 1/4
#SCROLL 3
#BARLINEOFF
,
#MEASURE 4/4
#SCROLL 1
#BARLINEON
,
,
,
,
500000000000000000000000000008000000000000000000,
#BARLINEOFF
#SCROLL 1.5
4,//7
#BARLINEON
#SCROLL 1
#GOGOSTART
03030303,
03030000,
03030303,
,
03030303,
03030000,
03030304,//14
#GOGOEND
,//15
#GOGOSTART
11//16
#GOGOEND
00,
11,//17
#GOGOSTART
11//18
#GOGOEND
00,
11,//19
#GOGOSTART
22//20
#GOGOEND
00,
22,//21
#GOGOSTART
22//22
#GOGOEND
00,
22,
11,
1110,
11,
2220,
1111,
2222,
1212,
#SCROLL 1.5
600000000000000000000000000000000000000000000008,
#BARLINEOFF
,
#SCROLL 2
#BARLINEON
9009,//33
#SCROLL 1
#GOGOSTART
8000000
#SCROLL 1.5
3,
#SCROLL 1
0000000
#SCROLL 1.5
4,
#SCROLL 1
,
3344,
0000000
#SCROLL 1.5
3,
#SCROLL 1
0000000
#SCROLL 1.5
4,
#SCROLL 1
,//40
#GOGOEND
500000000000000000000008000000000000//41
#SCROLL 1.5
#GOGOSTART
400000000000,
#SCROLL 1
0000000
#SCROLL 1.5
3,
#SCROLL 1
0000000
#SCROLL 1.5
4,
#SCROLL 1
,
3344,
0000000
#SCROLL 1.5
3,
#SCROLL 1
0000000
#SCROLL 1.5
4,
#SCROLL 1
,//48
#GOGOEND
500000000000000000000008000000000000//49-1
#SCROLL 1.5
#GOGOSTART
400000000000,//49-2
#SCROLL 1
#GOGOEND
500000000000000000000008000000000000//50-1
#SCROLL 1.5
#GOGOSTART
400000000000,//50-2
#SCROLL 1
#GOGOEND
5,
000008000000000000000000//52-1
#SCROLL 1.5
#GOGOSTART
400000000000000000000000,//52-2
#SCROLL 1
#GOGOEND
,
,
,
,//56
#GOGOSTART
03030303,
03030000,
03030303,
7008,//60
#GOGOEND
,
#SCROLL 2
9009,//62
#SCROLL 1
#GOGOSTART
8000000
#SCROLL 1.5
3,
#SCROLL 1
0000000
#SCROLL 1.5
4,
#SCROLL 1
,
3344,
0000000
#SCROLL 1.5
3,
#SCROLL 1
0000000
#SCROLL 1.5
4,
#SCROLL 1
,//69
#GOGOEND
500000000000000000000008000000000000//70-1
#SCROLL 1.5
#GOGOSTART
400000000000,//70-2
#SCROLL 1
#GOGOEND
500000000000000000000008000000000000//71-1
#SCROLL 1.5
#GOGOSTART
400000000000,//71-2
#SCROLL 1
#GOGOEND
6,
000008000000000000000000//73-1
#SCROLL 2
#GOGOSTART
400000000000000000000000,//73-2
#BARLINEOFF
#SCROLL 1
#GOGOEND
,
#END