664 lines
15 KiB
Plaintext
664 lines
15 KiB
Plaintext
//TJADB Project
|
|
TITLE:Overture Ⅸ
|
|
TITLEJA:序曲IX
|
|
SUBTITLE:--Koichi Sugiyama/Dragon Quest Ⅸ: Sentinels of the Starry Skies
|
|
SUBTITLEJA:「ドラゴンクエストIX」より
|
|
BPM:88.11
|
|
WAVE:Overture IX.ogg
|
|
OFFSET:-2.988
|
|
DEMOSTART:26.363
|
|
|
|
COURSE:Oni
|
|
LEVEL:3
|
|
BALLOON:23
|
|
SCOREINIT:1120
|
|
SCOREDIFF:280
|
|
|
|
|
|
#START
|
|
|
|
|
|
500000000000000000000000000000000000000008000000,
|
|
#MEASURE 2/4
|
|
#BPMCHANGE 87.14
|
|
,
|
|
#MEASURE 5/4
|
|
10100,
|
|
#MEASURE 4/4
|
|
#BPMCHANGE 87.95
|
|
#SCROLL 0.99
|
|
000000000111100000000111,
|
|
#MEASURE 2/4
|
|
#BPMCHANGE 88.11
|
|
#SCROLL 0.98
|
|
1,
|
|
#MEASURE 4/4
|
|
#BPMCHANGE 86.83
|
|
#SCROLL 1
|
|
100000000000000000000111,
|
|
#BPMCHANGE 88.11
|
|
#SCROLL 0.98
|
|
100000000111100000000000,
|
|
#MEASURE 2/4
|
|
#BPMCHANGE 88.35
|
|
,
|
|
#MEASURE 4/4
|
|
#BPMCHANGE 85.62
|
|
#SCROLL 1.01
|
|
500000000000000000000000000000000000000000000008,
|
|
#MEASURE 2/4
|
|
#BPMCHANGE 81.77
|
|
#SCROLL 1.06
|
|
03,
|
|
#BPMCHANGE 99.91
|
|
#SCROLL 1.21
|
|
32,
|
|
#MEASURE 4/4
|
|
#BPMCHANGE 121.31
|
|
#SCROLL 1
|
|
1112,
|
|
#BPMCHANGE 121
|
|
1000100000001001,
|
|
#BPMCHANGE 120.39
|
|
10010112,
|
|
1000100000002002,
|
|
#BPMCHANGE 121.3
|
|
2211,
|
|
#BPMCHANGE 121
|
|
11221111,
|
|
#BPMCHANGE 120.29
|
|
20000112,
|
|
#BPMCHANGE 122.14
|
|
1111,
|
|
|
|
#GOGOSTART
|
|
#BPMCHANGE 119.99
|
|
500000000000000000000008000000100000200000200000,
|
|
#BPMCHANGE 121.82
|
|
11221121,
|
|
#BPMCHANGE 120.29
|
|
500000000000000000000008000000100000200000200000,
|
|
#BPMCHANGE 121.2
|
|
11221121,
|
|
#BPMCHANGE 120.59
|
|
500000000000000000000008000000200000100000100000,
|
|
#BPMCHANGE 121.2
|
|
11121112,
|
|
#BPMCHANGE 121.82
|
|
11,
|
|
#BPMCHANGE 121.2
|
|
500000000000000000000008
|
|
|
|
#GOGOEND
|
|
#BPMCHANGE 114.8
|
|
#SCROLL 1.05
|
|
000000000000000000000000,
|
|
#BPMCHANGE 121.32
|
|
#SCROLL 1
|
|
1001200010012000,
|
|
#BPMCHANGE 121.62
|
|
1000111011101010,
|
|
#BPMCHANGE 120.63
|
|
1001200010012000,
|
|
#BPMCHANGE 121
|
|
1000100011101001,
|
|
1000200010012000,
|
|
1010202011101010,
|
|
1000200010111020,
|
|
1010111011101010,
|
|
|
|
#GOGOSTART
|
|
500000000000000000000008000000100000200000200000,
|
|
#BPMCHANGE 121.57
|
|
1010222010102010,
|
|
#BPMCHANGE 120.35
|
|
500000000000000000000008000000100000200000200000,
|
|
#BPMCHANGE 121.67
|
|
1010222010102010,
|
|
#BPMCHANGE 121.02
|
|
500000000000000000000008000000200000100000100000,
|
|
#BPMCHANGE 120.9
|
|
1010222010111020,
|
|
3434,
|
|
#BPMCHANGE 121.82
|
|
600000000000000000000008
|
|
|
|
#GOGOEND
|
|
#BPMCHANGE 154.04
|
|
000000000000000000000000,
|
|
#MEASURE 3/4
|
|
#BPMCHANGE 67.45
|
|
#SCROLL 1.8
|
|
0
|
|
#BPMCHANGE 67.84
|
|
#SCROLL 1.79
|
|
20,
|
|
#MEASURE 2/4
|
|
#BPMCHANGE 63.33
|
|
#SCROLL 1.92
|
|
22,
|
|
#MEASURE 3/4
|
|
#BPMCHANGE 72.95
|
|
#SCROLL 1.67
|
|
2,
|
|
#BPMCHANGE 70.64
|
|
#SCROLL 1.72
|
|
1
|
|
#BPMCHANGE 66.7
|
|
#SCROLL 1.82
|
|
1
|
|
#BPMCHANGE 60.76
|
|
#SCROLL 2
|
|
1,
|
|
#MEASURE 4/4
|
|
#BPMCHANGE 68.17
|
|
#SCROLL 1.78
|
|
500000000000000000000000000000000008000000000000,
|
|
#BPMCHANGE 58.1
|
|
#SCROLL 2.09
|
|
3
|
|
#BPMCHANGE 50.37
|
|
#SCROLL 2.41
|
|
3,
|
|
#BPMCHANGE 63.08
|
|
#SCROLL 1.93
|
|
7,
|
|
08,
|
|
|
|
|
|
#END
|
|
|
|
|
|
COURSE:Hard
|
|
LEVEL:4
|
|
BALLOON:16
|
|
SCOREINIT:1230
|
|
SCOREDIFF:320
|
|
|
|
|
|
#START
|
|
|
|
|
|
500000000000000000000000000000000000000080000000,
|
|
#MEASURE 2/4
|
|
#BPMCHANGE 87.14
|
|
000000000000000000000000,
|
|
#MEASURE 5/4
|
|
#BPMCHANGE 87.14
|
|
100000000000000000000000100000000000000000000000000000000000,
|
|
#MEASURE 4/4
|
|
#BPMCHANGE 87.95
|
|
#SCROLL 0.99
|
|
000000000000000000101010100000000000000000101010,
|
|
#MEASURE 2/4
|
|
#BPMCHANGE 88.11
|
|
#SCROLL 0.98
|
|
100000000000000000000000,
|
|
#MEASURE 4/4
|
|
#BPMCHANGE 86.83
|
|
#SCROLL 1
|
|
100000000000000000000000000000000000000000101010,
|
|
#BPMCHANGE 88.11
|
|
#SCROLL 0.98
|
|
100000000000000000101010100000000000000000000000,
|
|
#MEASURE 2/4
|
|
#BPMCHANGE 88.35
|
|
000000000000000000000000,
|
|
#BPMCHANGE 85.62
|
|
#SCROLL 1.01
|
|
#MEASURE 4/4
|
|
500000000000000000000000000000000000000000000080,
|
|
#BPMCHANGE 81.77
|
|
#SCROLL 1.06
|
|
#MEASURE 2/4
|
|
000000000000300000000000,
|
|
#BPMCHANGE 99.91
|
|
#SCROLL 1.21
|
|
300000000000200000000000,
|
|
#BPMCHANGE 121.31
|
|
#SCROLL 1
|
|
#MEASURE 4/4
|
|
100000000000100000000000100000000000200000000000,
|
|
#BPMCHANGE 121
|
|
100000000000100000000000000000000000100000000100,
|
|
#BPMCHANGE 120.39
|
|
100000000000000000100000000000100000100000200000,
|
|
100000000000100000000000000000000000200000000200,
|
|
#BPMCHANGE 121.3
|
|
200000000000200000000000100000000000100000000000,
|
|
#BPMCHANGE 121
|
|
100000100000200000200000100000100000100000100000,
|
|
#BPMCHANGE 120.29
|
|
200000000000000000000000000000100000100000200000,
|
|
#BPMCHANGE 122.14
|
|
100000000000100000000000100000000000100000000000,
|
|
#GOGOSTART
|
|
#BPMCHANGE 119.99
|
|
500000000000000000000080000000100000200000200000,
|
|
#BPMCHANGE 121.82
|
|
100000000000000000000000100000000000200000000000,
|
|
#BPMCHANGE 120.29
|
|
500000000000000000000080000000100000200000200000,
|
|
#BPMCHANGE 121.2
|
|
100000000000000000000000100000000000200000000000,
|
|
#BPMCHANGE 120.59
|
|
500000000000000000000080000000100000100000200000,
|
|
#BPMCHANGE 121.2
|
|
200000000000000000000000000000100000200000200000,
|
|
#BPMCHANGE 121.82
|
|
100000000000000000000000100000000000000000000000,
|
|
#BPMCHANGE 121.2
|
|
500000000000000000000080
|
|
|
|
#GOGOEND
|
|
#BPMCHANGE 114.8
|
|
#SCROLL 1.05
|
|
000000000000000000000000,
|
|
#BPMCHANGE 121.32
|
|
#SCROLL 1
|
|
100000000000100000000000100100100000200000000000,
|
|
#BPMCHANGE 121.62
|
|
100000000000100000000000100100100000200000000000,
|
|
#BPMCHANGE 120.63
|
|
100000000000000000100000000000100000100000200000,
|
|
#BPMCHANGE 121
|
|
100000000000100000000000100100100000100000000000,
|
|
200000000000200000000000200200200000200000000000,
|
|
100000000000100000100000100100100000100000200000,
|
|
200000000000200000000000100100100000100000200000,
|
|
100000000000100000000000100000000000100000000000,
|
|
|
|
#GOGOSTART
|
|
500000000000000000000080000000100000200000200000,
|
|
#BPMCHANGE 121.57
|
|
100000000000100100100000100000000000200000000000,
|
|
#BPMCHANGE 120.35
|
|
500000000000000000000080000000100000200000200000,
|
|
#BPMCHANGE 121.67
|
|
100000000000100100100000100000000000200000000000,
|
|
#BPMCHANGE 121.02
|
|
500000000000000000000080000000100000100000200000,
|
|
#BPMCHANGE 120.9
|
|
200000000000200000000000200200200000200000200000,
|
|
300000000000000000000000300000000000000000000000,
|
|
#BPMCHANGE 121.82
|
|
600000000000000000000080
|
|
|
|
#GOGOEND
|
|
#BPMCHANGE 154.04
|
|
#SCROLL 0.79
|
|
000000000000000000000000,
|
|
#BPMCHANGE 67.45
|
|
#SCROLL 1.8
|
|
#MEASURE 3/4
|
|
000000000000
|
|
#BPMCHANGE 67.7
|
|
#SCROLL 1.79
|
|
200000000000000000000000,
|
|
#BPMCHANGE 63.33
|
|
#SCROLL 1.92
|
|
#MEASURE 2/4
|
|
200000000000200000000000,
|
|
#BPMCHANGE 72.95
|
|
#SCROLL 1.67
|
|
#MEASURE 3/4
|
|
200000000000000000000000000000000000,
|
|
#BPMCHANGE 70.64
|
|
#SCROLL 1.72
|
|
100000000000
|
|
#BPMCHANGE 66.7
|
|
#SCROLL 1.82
|
|
100000000000
|
|
#BPMCHANGE 60.76
|
|
#SCROLL 2
|
|
100000000000,
|
|
#BPMCHANGE 68.27
|
|
#SCROLL 1.78
|
|
#MEASURE 4/4
|
|
500000000000000000000000000000000080000000000000,
|
|
#BPMCHANGE 58.1
|
|
#SCROLL 2.09
|
|
300000000000000000000000
|
|
#BPMCHANGE 50.37
|
|
#SCROLL 2.41
|
|
300000000000000000000000,
|
|
#BPMCHANGE 63.08
|
|
#SCROLL 1.93
|
|
700000000000000000000000000000000000000000000000,
|
|
000000000000000000000008000000000000000000000000,
|
|
|
|
|
|
#END
|
|
|
|
|
|
COURSE:Normal
|
|
LEVEL:4
|
|
BALLOON:12
|
|
SCOREINIT:1300
|
|
SCOREDIFF:380
|
|
|
|
|
|
#START
|
|
|
|
|
|
500000000000000000000000000000000000000080000000,
|
|
#MEASURE 2/4
|
|
#BPMCHANGE 87.14
|
|
000000000000000000000000,
|
|
#MEASURE 5/4
|
|
#BPMCHANGE 87.14
|
|
100000000000000000000000100000000000000000000000000000000000,
|
|
#MEASURE 4/4
|
|
#BPMCHANGE 87.95
|
|
#SCROLL 0.99
|
|
500000000000000000000000000000000000000000000080,
|
|
#MEASURE 2/4
|
|
#BPMCHANGE 88.11
|
|
#SCROLL 0.98
|
|
000000000000000000000000,
|
|
#MEASURE 4/4
|
|
#BPMCHANGE 86.83
|
|
#SCROLL 1
|
|
100000000000000000000000000000000000000000000000,
|
|
#BPMCHANGE 88.11
|
|
#SCROLL 0.98
|
|
300000000000000000000000300000000000000000000000,
|
|
#MEASURE 2/4
|
|
#BPMCHANGE 88.35
|
|
000000000000000000000000,
|
|
#BPMCHANGE 85.62
|
|
#SCROLL 1.01
|
|
#MEASURE 4/4
|
|
500000000000000000000000000000000000000000000080,
|
|
#BPMCHANGE 81.77
|
|
#SCROLL 1.06
|
|
#MEASURE 2/4
|
|
000000000000300000000000,
|
|
#BPMCHANGE 99.91
|
|
#SCROLL 1.21
|
|
300000000000200000000000,
|
|
#BPMCHANGE 121.31
|
|
#SCROLL 1
|
|
#MEASURE 4/4
|
|
100000000000100000000000100000000000100000000000,
|
|
#BPMCHANGE 121
|
|
100000000000100000000000000000000000100000000000,
|
|
#BPMCHANGE 120.39
|
|
100000000000000000100000000000100000100000100000,
|
|
100000000000100000000000000000000000200000000000,
|
|
#BPMCHANGE 121.3
|
|
200000000000200000000000200000000000200000000000,
|
|
#BPMCHANGE 121
|
|
200000000000000000000000000000200000200000200000,
|
|
#BPMCHANGE 120.29
|
|
200000000000000000000000000000100000100000100000,
|
|
#BPMCHANGE 122.14
|
|
100000000000100000000000100000000000100000000000,
|
|
#GOGOSTART
|
|
#BPMCHANGE 119.99
|
|
500000000000000080000000000000100000100000100000,
|
|
#BPMCHANGE 121.82
|
|
100000000000000000000000100000000000100000000000,
|
|
#BPMCHANGE 120.29
|
|
500000000000000080000000000000100000100000100000,
|
|
#BPMCHANGE 121.2
|
|
100000000000000000000000100000000000000000000000,
|
|
#BPMCHANGE 120.59
|
|
500000000000000080000000000000200000200000200000,
|
|
#BPMCHANGE 121.2
|
|
200000000000000000000000000000100000100000100000,
|
|
#BPMCHANGE 121.82
|
|
100000000000000000000000100000000000000000000000,
|
|
#BPMCHANGE 121.2
|
|
500000000000000000000080
|
|
|
|
#GOGOEND
|
|
#BPMCHANGE 114.8
|
|
#SCROLL 1.05
|
|
000000000000000000000000,
|
|
#BPMCHANGE 121.32
|
|
#SCROLL 1
|
|
100000000000100000000000100000000000100000000000,
|
|
#BPMCHANGE 121.62
|
|
100000000000100000000000000000000000100000000100,
|
|
#BPMCHANGE 120.63
|
|
100000000000000000100000000000100000100000100000,
|
|
#BPMCHANGE 121
|
|
100000000000100000000000000000000000200000000200,
|
|
200000000000200000000000200000000000200000000000,
|
|
200000000000000000000000000000100000100000100000,
|
|
100000000000000000000000000000100000100000100000,
|
|
100000000000100000000000100000000000100000000000,
|
|
#GOGOSTART
|
|
500000000000000080000000000000100000100000100000,
|
|
#BPMCHANGE 121.57
|
|
100000000000000000000000100000000000200000000000,
|
|
#BPMCHANGE 120.35
|
|
500000000000000080000000000000100000100000100000,
|
|
#BPMCHANGE 121.67
|
|
100000000000000000000000100000000000200000000000,
|
|
#BPMCHANGE 121.02
|
|
500000000000000080000000000000200000200000200000,
|
|
#BPMCHANGE 120.9
|
|
200000000000000000000000000000100000100000100000,
|
|
300000000000000000000000300000000000000000000000,
|
|
#BPMCHANGE 121.82
|
|
600000000000000000000080
|
|
|
|
#GOGOEND
|
|
#BPMCHANGE 154.04
|
|
#SCROLL 0.79
|
|
000000000000000000000000,
|
|
#BPMCHANGE 67.45
|
|
#SCROLL 1.8
|
|
#MEASURE 3/4
|
|
000000000000
|
|
#BPMCHANGE 67.84
|
|
#SCROLL 1.79
|
|
200000000000000000000000,
|
|
#BPMCHANGE 63.33
|
|
#SCROLL 1.92
|
|
#MEASURE 2/4
|
|
200000000000200000000000,
|
|
#BPMCHANGE 72.95
|
|
#SCROLL 1.67
|
|
#MEASURE 3/4
|
|
200000000000000000000000000000000000,
|
|
#BPMCHANGE 70.64
|
|
#SCROLL 1.72
|
|
100000000000
|
|
#BPMCHANGE 66.7
|
|
#SCROLL 1.82
|
|
100000000000
|
|
#BPMCHANGE 60.76
|
|
#SCROLL 2
|
|
100000000000,
|
|
#BPMCHANGE 68.17
|
|
#SCROLL 1.78
|
|
#MEASURE 4/4
|
|
500000000000000000000000000000000080000000000000,
|
|
#BPMCHANGE 58.1
|
|
#SCROLL 2.09
|
|
300000000000000000000000
|
|
#BPMCHANGE 50.37
|
|
#SCROLL 2.41
|
|
300000000000000000000000,
|
|
#BPMCHANGE 63.08
|
|
#SCROLL 1.93
|
|
700000000000000000000000000000000000000000000000,
|
|
000000000000000000000008000000000000000000000000,
|
|
|
|
|
|
#END
|
|
|
|
|
|
COURSE:Easy
|
|
LEVEL:3
|
|
BALLOON:4,4,12
|
|
SCOREINIT:1210
|
|
SCOREDIFF:490
|
|
|
|
|
|
#START
|
|
|
|
|
|
500000000000000000000000000000000000000080000000,
|
|
#BPMCHANGE 87.14
|
|
#MEASURE 2/4
|
|
000000000000000000000000,
|
|
000000000000000000000000,
|
|
#MEASURE 5/4
|
|
100000000000000000000000100000000000000000000000000000000000,
|
|
#BPMCHANGE 87.95
|
|
#SCROLL 0.99
|
|
#MEASURE 4/4
|
|
500000000000000000000000000000000000000000000080,
|
|
#BPMCHANGE 88.11
|
|
#SCROLL 0.98
|
|
#MEASURE 2/4
|
|
000000000000000000000000,
|
|
000000000000000000000000,
|
|
#BPMCHANGE 86.83
|
|
#SCROLL 1
|
|
#MEASURE 4/4
|
|
100000000000000000000000000000000000000000000000,
|
|
#BPMCHANGE 88.11
|
|
#SCROLL 0.98
|
|
300000000000000000000000300000000000000000000000,
|
|
#BPMCHANGE 88.35
|
|
#MEASURE 2/4
|
|
000000000000000000000000,
|
|
000000000000000000000000,
|
|
#BPMCHANGE 85.62
|
|
#SCROLL 1.01
|
|
#MEASURE 4/4
|
|
500000000000000000000000000000000000000000000080,
|
|
#BPMCHANGE 81.77
|
|
#SCROLL 1.06
|
|
#MEASURE 2/4
|
|
000000000000000000000000,
|
|
000000000000000000000000,
|
|
#BPMCHANGE 99.91
|
|
#SCROLL 1.21
|
|
000000000000000000000000,
|
|
000000000000000000000000,
|
|
#BPMCHANGE 121.31
|
|
#SCROLL 1
|
|
#MEASURE 4/4
|
|
100000000000100000000000100000000000100000000000,
|
|
#BPMCHANGE 121
|
|
100000000000000000000000000000000000000000000000,
|
|
#BPMCHANGE 120.39
|
|
100000000000000000000000000000000000000000000000,
|
|
100000000000100000000000000000000000000000000000,
|
|
#BPMCHANGE 121.3
|
|
100000000000100000000000100000000000100000000000,
|
|
#BPMCHANGE 121
|
|
100000000000000000000000000000000000000000000000,
|
|
#BPMCHANGE 120.29
|
|
100000000000000000000000000000000000000000000000,
|
|
#BPMCHANGE 122.14
|
|
100000000000100000000000100000000000100000000000,
|
|
#BPMCHANGE 119.99
|
|
#GOGOSTART
|
|
300000000000000000000000000000000000000000000000,
|
|
#BPMCHANGE 121.82
|
|
200000000000000000000000100000000000100000000000,
|
|
#BPMCHANGE 120.29
|
|
300000000000000000000000000000000000000000000000,
|
|
#BPMCHANGE 121.2
|
|
200000000000000000000000100000000000100000000000,
|
|
#BPMCHANGE 120.59
|
|
100000000000000000000000000000000000000000000000,
|
|
#BPMCHANGE 121.2
|
|
700000000000000000000080000000000000000000000000,
|
|
#BPMCHANGE 121.82
|
|
300000000000000000000000300000000000000000000000,
|
|
#BPMCHANGE 121.2
|
|
500000000000000000000080
|
|
|
|
#GOGOEND
|
|
#BPMCHANGE 114.8
|
|
#SCROLL 1.05
|
|
000000000000000000000000,
|
|
#BPMCHANGE 121.32
|
|
#SCROLL 1
|
|
100000000000100000000000100000000000100000000000,
|
|
#BPMCHANGE 121.62
|
|
100000000000000000000000000000000000000000000000,
|
|
#BPMCHANGE 120.63
|
|
100000000000000000000000200000000000000000000000,
|
|
#BPMCHANGE 121
|
|
100000000000100000000000000000000000000000000000,
|
|
100000000000100000000000100000000000100000000000,
|
|
100000000000000000000000000000000000000000000000,
|
|
100000000000000000000000200000000000000000000000,
|
|
100000000000100000000000100000000000100000000000,
|
|
|
|
#GOGOSTART
|
|
300000000000000000000000000000000000000000000000,
|
|
#BPMCHANGE 121.57
|
|
200000000000000000000000100000000000100000000000,
|
|
#BPMCHANGE 120.35
|
|
300000000000000000000000000000000000000000000000,
|
|
#BPMCHANGE 121.67
|
|
200000000000000000000000100000000000100000000000,
|
|
#BPMCHANGE 121.02
|
|
300000000000000000000000000000000000000000000000,
|
|
#BPMCHANGE 120.9
|
|
700000000000000000000080000000000000000000000000,
|
|
300000000000000000000000300000000000000000000000,
|
|
#BPMCHANGE 121.82
|
|
600000000000000000000080
|
|
|
|
#GOGOEND
|
|
#BPMCHANGE 154.04
|
|
#SCROLL 0.75
|
|
000000000000000000000000,
|
|
#BPMCHANGE 67.45
|
|
#SCROLL 1.8
|
|
#MEASURE 3/4
|
|
000000000000
|
|
#BPMCHANGE 67.84
|
|
#SCROLL 1.79
|
|
200000000000000000000000,
|
|
000000000000000000000000000000000000,
|
|
#BPMCHANGE 63.33
|
|
#SCROLL 1.92
|
|
#MEASURE 2/4
|
|
200000000000200000000000,
|
|
000000000000000000000000,
|
|
#BPMCHANGE 72.95
|
|
#SCROLL 1.67
|
|
#MEASURE 3/4
|
|
200000000000000000000000000000000000,
|
|
000000000000000000000000000000000000,
|
|
#BPMCHANGE 70.64
|
|
#SCROLL 1.72
|
|
100000000000
|
|
#BPMCHANGE 66.7
|
|
#SCROLL 1.82
|
|
100000000000
|
|
#BPMCHANGE 60.76
|
|
#SCROLL 2
|
|
100000000000,
|
|
000000000000000000000000000000000000,
|
|
#BPMCHANGE 68.17
|
|
#SCROLL 1.78
|
|
#MEASURE 4/4
|
|
500000000000000000000000000080000000000000000000,
|
|
#BPMCHANGE 58.1
|
|
#SCROLL 2.09
|
|
300000000000000000000000
|
|
#BPMCHANGE 50.37
|
|
#SCROLL 2.41
|
|
300000000000000000000000,
|
|
#BPMCHANGE 63.08
|
|
#SCROLL 1.93
|
|
700000000000000000000000000000000000000000000000,
|
|
000000000000000000000080000000000000000000000000,
|
|
|
|
|
|
#END
|
|
|